Всемирное природное наследие / Weltnaturerbe / World Natural Heritage (2012, BDRip 1080p от Ash61) Half OverUnder / Вертикальная анаморфная стереопара

Ответить на тему
 
Автор Сообщение

utermidai ®

Пол: Мужской

Стаж: 6 года 6 месяца

Сообщений: 652

Откуда: Ukraine

Создавать темы 27-Июн-2020 22:10

[Цитировать]


Информация о фильме:
Название: Всемирное природное наследие
Оригинальное название: Weltnaturerbe World Natural Heritage
Страна: Германия (New KSM)
Год выпуска: 2012
Жанр: Документальный
Продолжительность Колумбия: 00:51:54
Продолжительность Коста-Рика: 00:51:49
Продолжительность Панама: 00:51:15
Продолжительность США, Гранд Каньон: 00:50:46
Продолжительность США, Гавайские Вулканы: 00:53:18
Продолжительность США, Йеллоустоун: 00:51:41
Продолжительность (суммарная): 05:10:43
Перевод: Профессиональный одноголосый закадровый (с телеканала HD Life)
Режиссер: Norbert Vander О фильме:
Шесть фильмов-путешествий (полная версия) по природным паркам стран Америки.--

Описание

Колумбия, природный заповедник Малпело / Colombia. Malpelo Fauna and Flora Sanctuary
Национальный парк ЮНЕСКО Мальпело находится в восточной части Тихого океана, примерно в 500 километрах от колумбийской побережья. Мальпело является морским коридором, который соединяет другие точки Всемирного наследия, такие как Галапагосские острова, Койба и Кокосовое острова. Остров, размером около 35 гектар — это сердце природного заповедника. Сам заповедник занимает площадь около 8500 квадратных километров. Быть частью этой мечты и сопровождать экспедицию в Тихом океане — это невероятный опыт, полный приключений, потрясающих видов и захватывающих дух красок.
Коста-Рика, заповедник Гуанакасте
Путешествие по Гуанакасте — от побережья Тихого океана, через мангровые леса к тропическим джунглям Коста-Рики. Вы увидите игуан, ядовитых змей и обезьян-капуцинов в их естественной среде. Изюминкой нашей экспедиции будет встреча с одним из последних первобытных коренных племен в мире. Индейцы Малеку жили в тропическом лесу в гармонии с природой на протяжении многих веков и до сих пор сохраняют свои традиции. В 1999 году ЮНЕСКО объявило Гуанакасте объектом Всемирного природного наследия. Территория включает в себя национальные парки Санта Роса, Гуанакасте и Ринкон-де-ла-Вьеха.
Панама, национальный парк Ла Амистад
Тропический лес, покрытый тайнами и легендами с незапамятных времен. Это должно быть колдовство, когда пропадают целые экспедиции. Зло обитает в тропическом лесу, где скрываются дикие животные и ядовитые змеи. Восход веет зловещим туманом. Но действительно ли существуют злые духи леса? Действительно ли является туман в высоких тропических лесах дыханием преисподней? Во время нашей экспедиции мы сталкиваемся с животными облачного леса и горных частей тропического леса. Мы также узнаем, как на самом деле работает экосистема тропического леса и почему цианобактерии так полезны для нашего глобального климата. Также мы посетим необычную грибную ферму. Присоединяйтесь к нашей поездке через объект Всемирного природного наследия Ла-Амистад в Панаме.
США, национальный парк Гранд Каньон
Гранд-Каньон навсегда останется непознанным и нетронутым. Никто не сможет пройти по нему. Путешествие там слишком опасно, а территория негостеприимна. Таково было заключение Джозефа Си. Ивса в 1858 году, совершившего свою неудачную экспедицию туда. Но он ошибся.
С тех пор, более 100 миллионов туристов посетили Гранд-Каньон реки Колорадо. Гранд-Каньон является уникальным местом неописуемой красоты, тщательно вырезанным сантиметр за сантиметром в камне одной рекой в течение миллионов лет. С вершины самой верхней точки и до берегов реки Колорадо, он охватывает пять климатических зон. Это также объясняет, почему Гранд-Каньон может похвастаться непревзойденным разнообразием флоры и фауны. Обитатели пустынь и гор живут здесь, в непосредственной близости в рамках уникальной биосферы.
США, национальный парк Гавайские Вулканы - Большой остров.
Порождение огня и воды: энергия, являющаяся основой нашей планеты, превращенная в камень. Именно здесь приходят мысли о сотворении Земли. Именно здесь далеко от всех континентов мира необузданные силы природы показаны во всем своем великолепии. Отражение первозданного хаоса, и в то же время Гавайи остаются одним из самых спокойных мест на земле. Подводный мир Гавайских островов также отмечен следами действия вулканов. Прочные скальные образования застывшей лавы характеризуют подводных обитателей. Путешествие в увлекательный мир пещер и кораллов на острове вулканов. Место, где кругом загадки и удивительные сказки.
США, национальный парк Йеллоустоун.
Национальный парк Йеллоустун является старейшим национальным парком в мире. Это территория с самой высокой в мире концентрацией гейзеров и термальных источников. Парк также широко известен своими бесчисленными стадами бизонов, пасущимися на высокогорных плато, зачастую в сопровождении волков, которые были вновь ввезены в Йеллоустонский национальный парк около десяти лет назад. Также этот парк населяют чёрные медведи, бобры и вапити. Это фильм о том, как природа играет свою значимую роль.
Информация о видео-файле:
Качество: BDrip (by Ash61)
Контейнер: MKV
Формат 3D: Half OverUnder / Вертикальная анаморфная стереопара
Порядок ракурсов: левый ракурс первый
Видео: AVC / 23,976 fps / 1920х1080p
Аудио:
#1 - Русский / AC3 / 48 KHz / 5.1 ch / 640 Kbps (VO - HDTV) (монтаж в 5.1 - Ash61)
#2 - Английский / AC3 / 48 KHz / 5.1 ch / 640 Kbps
Субтитры(SRT):
Вшитые: Отсутствуют Mедиа инфо

MediaInfo первого файла

General
Unique ID : 205263459422855330383227048639321428976 (0x9A6C4DE68BB7033EA38D4783255953F0)
Complete name : E:WorldNaturalHeritage(2012)3D-halfOU(Ash61)WorldNaturalHeritage.Colombia(2012)3D-halfOU(Ash61).mkv
Format : Matroska
Format version : Version 2
File size : 6.82 GiB
Duration : 51mn 53s
Overall bit rate : 18.8 Mbps
Movie name : Всемирное природное наследие: Колумбия. Заповедник флоры и фауны Мальпело / Weltnaturerbe Kolumbien 3D - Malpelo Nationalpark (2012) в 3Д
Encoded date : UTC 2017-07-10 13:32:39
Writing application : mkvmerge v5.8.0 ('No Sleep / Pillow') built on Sep 2 2012 15:37:04
Writing library : libebml v1.2.3 + libmatroska v1.3.0
Video
ID : 1
Format : AVC
Format/Info : Advanced Video Codec
Format profile : High@L4.1
Format settings, CABAC : Yes
Format settings, ReFrames : 4 frames
Codec ID : V_MPEG4/ISO/AVC
Duration : 51mn 53s
Bit rate : 17.2 Mbps
Width : 1 920 pixels
Height : 1 080 pixels
Display aspect ratio : 16:9
Frame rate mode : Constant
Frame rate : 23.976 fps
Color space : YUV
Chroma subsampling : 4:2:0
Bit depth : 8 bits
Scan type : Progressive
Bits/(Pixel*Frame) : 0.345
Stream size : 6.22 GiB (91%)
Title : BDRip by Ash61
Writing library : x264 core 119 r2106 07efeb4
Encoding settings : cabac=1 / ref=4 / deblock=1:-1:-1 / analyse=0x3:0x113 / me=umh / subme=9 / psy=1 / psy_rd=1.00:0.15 / mixed_ref=1 / me_range=32 / chroma_me=1 / trellis=2 / 8x8dct=1 / cqm=0 / deadzone=21,11 / fast_pskip=1 / chroma_qp_offset=-3 / threads=12 / sliced_threads=0 / nr=0 / decimate=1 / interlaced=0 / bluray_compat=0 / constrained_intra=0 / bframes=6 / b_pyramid=2 / b_adapt=2 / b_bias=0 / direct=3 / weightb=1 / open_gop=0 / weightp=2 / keyint=250 / keyint_min=23 / scenecut=40 / intra_refresh=0 / rc_lookahead=60 / rc=crf / mbtree=1 / crf=18.0 / qcomp=0.70 / qpmin=10 / qpmax=51 / qpstep=4 / vbv_maxrate=40000 / vbv_bufsize=30000 / crf_max=0.0 / nal_hrd=none / frame-packing=4 / ip_ratio
Language : German
Default : Yes
Forced : No
Audio #1
ID : 2
Format : AC-3
Format/Info : Audio Coding 3
Mode extension : CM (complete main)
Format settings, Endianness : Big
Codec ID : A_AC3
Duration : 51mn 53s
Bit rate mode : Constant
Bit rate : 640 Kbps
Channel(s) : 6 channels
Channel positions : Front: L C R, Side: L R, LFE
Sampling rate : 48.0 KHz
Bit depth : 16 bits
Compression mode : Lossy
Stream size : 238 MiB (3%)
Title : Одноголосый закадровый - TV HD Life (монтаж в 5.1 - Ash61)
Language : Russian
Default : Yes
Forced : No
Audio #2
ID : 3
Format : AC-3
Format/Info : Audio Coding 3
Mode extension : CM (complete main)
Format settings, Endianness : Big
Codec ID : A_AC3
Duration : 51mn 53s
Bit rate mode : Constant
Bit rate : 640 Kbps
Channel(s) : 6 channels
Channel positions : Front: L C R, Side: L R, LFE
Sampling rate : 48.0 KHz
Bit depth : 16 bits
Compression mode : Lossy
Stream size : 238 MiB (3%)
Language : English
Default : No
Forced : No
Menu
00:00:00.000 : :1
00:07:47.801 : :2
00:12:26.746 : :3
00:17:36.973 : :4
00:25:53.260 : :5
00:33:44.022 : :6
00:43:49.043 : :7
00:48:53.931 : :8


Скриншоты

-Время раздачи: по мере возможности
[Профиль] [ЛС]
Показать сообщения:    
Ответить на тему

Текущее время: 15-Июл 13:48

Часовой пояс: UTC + 3



Вы не можете начинать темы
Вы не можете отвечать на сообщения
Вы не можете редактировать свои сообщения
Вы не можете удалять свои сообщения
Вы не можете голосовать в опросах
Вы не можете прикреплять файлы к сообщениям
Вы не можете скачивать файлы