Зверополис / Zootopia (2016, BDRip 1080p от Ash61) Half OverUnder / Вертикальная анаморфная стереопара [Лицензия]

Ответить на тему
 
Автор Сообщение

utermidai ®

Пол: Мужской

Стаж: 6 года 6 месяца

Сообщений: 652

Откуда: Ukraine

Создавать темы 28-Июн-2020 20:44

[Цитировать]

Информация о фильме:
Название: Зверополис
Оригинальное название: Zootopia
Страна: США
Студия: Walt Disney Animation Studios
Слоган: «И смех, и мех.»
Год выпуска: 11 февраля 2016
Жанр: Мультфильм, Боевик, Комедия, Криминал, Приключения, Семейный
Продолжительность: 01:48:44
Перевод: Профессиональный дублированый [Лицензия]
Режиссер: Байрон Ховард, Рич Мур, Джаред Буш

Роли озвучили (дублировали):
Judy Hopps Джиннифер Гудвин (Мария Ивакова)
Nick Wilde Джейсон Бейтман (Антон Лаврентьев)
Chief Bogo Идрис Эльба (Борис Хасанов)
Bellwether Дженни Слейт (Мария Аронова)
Clawhauser Нейт Торренс (Андрей Мошков)
Bonnie Hopps Бонни Хант (Татьяна Шитова)
Stu Hopps Дон Лейк (Денис Некрасов)
Yax Томми Чонг (Денис Некрасов)
Mayor Lionheart Дж.К. Симмонс (Владимир Меньшов)
Mrs. Otterton Октавия Спенсер (Инга Сметанина)
Duke Weaselton Алан Тьюдик (Филипп Лебедев)
Gazelle Шакира (Варвара Чабан)
Priscilla Кристен Белл О фильме:
Добро пожаловать в Зверополис — современный город, населенный самыми разными животными, от огромных слонов до крошечных мышек.
Зверополис разделен на районы, полностью повторяющие естественную среду обитания разных жителей — здесь есть и элитный район Площадь Сахары и не :)ливый Тундратаун.
В этом городе появляется новый офицер полиции, жизнерадостная зайчиха Джуди Хоппс, которая с первых дней работы понимает, как сложно быть маленькой и пушистой среди больших и сильных полицейских. Джуди хватается за первую же возможность проявить себя, несмотря на то, что ее партнером будет болтливый хитрый лис Ник Уайлд.
Вдвоем им предстоит раскрыть сложное дело, от которого будет зависеть судьба всех обитателей Зверополиса.-- Информация о видео-файле:
Качество: BDRip (by Ash61)
Контейнер: MKV
Формат 3D: Half OverUnder / Вертикальная анаморфная стереопара
Порядок ракурсов: левый ракурс первый
Видео: AVC / 1920х1080p / 23,976 fps / 8667 Kbps
Аудио:
#1 - Русский / AC3 / 48 KHz / 5.1 ch / 640 Kbps (Дубляж - BD 3D CEE)
#2 - Английский / AC3 / 48 KHz / 5.1 ch / 640 Kbps (Original - BD 3D CEE)
Субтитры:
Внешние: (SRT UTF-8)
#1 - Русские Полные
#2 - Украинские Полные
#3 - English Full Знаете ли вы, что...

Знаете ли вы, что...

Это первый из двух анимационных фильмов с участием Идриса Эльбы, предназначенный к выходу в 2016 году. Вторым будет «В поисках Дори».
Персонаж Джуди Хоппс в исполнении Джиннифер Гудвин назван в честь персонажа Джуди Хоффс в исполнении Холли Робинсон Пит из сериала «Джамп стрит, 21» (1987).
Дюка Хорьковица (в оригинале англ. Duke Weaselton) озвучивает Алан Тьюдик, который также озвучил герцога Варавского (в оригинале англ. Duke of Weselton) в мультфильме «Холодное сердце» (2013). Герцог по-английски «duke».
В анимационном «Городе героев» (2014) в эпизоде полёта Бэймакса и Хиро можно увидеть постер «Зверополиса».
На футляре телефона Хани Лемон из «Города героев» (2014) изображено главное действующее лицо «Зверополиса».
Персонаж Ника Уайлда срисован с диснеевского Робина Гуда из одноимённого мультфильма, который тоже был лисом.
Для актёра Алана Тьюдика это работа уже в четвёртом подряд мультфильме, который продюсирует «Walt Disney Animation Studios», после «Ральфа» (2012), «Холодного сердца» (2013) и «Города героев»(2014).
Это уже третий мультфильм студии «Disney», в котором действуют антропоморфные животные и в котором нет ни людей, ни не-антропоморфных животных. Первыми двумя были «Робин Гуд» (1973) и «Цыплёнок Цыпа» (2005).
Это первый анимационный фильм студии «Disney» после мультфильма «Медвежонок Винни и его друзья» (2011), премьера которого состоится не в ноябре.
Mедиа инфо

M/инфо

General
Unique ID : 194401702716693802753997117246369283951 (0x924067F2E7D25D309E6C3BF048A5BF6F)
Complete name : E:Zootopia(2016)3D-halfOU(Ash61)Video.RusZootopia(2016)3D-halfOU(Ash61)Video.Rus.mkv
Format : Matroska
Format version : Version 2
File size : 7.71 GiB
Duration : 1h 48mn
Overall bit rate : 10.1 Mbps
Movie name : Зверополис / Zootopia (2016) в 3Д
Encoded date : UTC 2016-08-19 15:09:55
Writing application : mkvmerge v5.8.0 ('No Sleep / Pillow') built on Sep 2 2012 15:37:04
Writing library : libebml v1.2.3 + libmatroska v1.3.0
Video
ID : 1
Format : AVC
Format/Info : Advanced Video Codec
Format profile : High@L4.1
Format settings, CABAC : Yes
Format settings, ReFrames : 4 frames
Codec ID : V_MPEG4/ISO/AVC
Duration : 1h 48mn
Bit rate : 8 667 Kbps
Width : 1 920 pixels
Height : 1 080 pixels
Display aspect ratio : 16:9
Frame rate mode : Constant
Frame rate : 23.976 fps
Color space : YUV
Chroma subsampling : 4:2:0
Bit depth : 8 bits
Scan type : Progressive
Bits/(Pixel*Frame) : 0.174
Stream size : 6.58 GiB (85%)
Title : BDRip by Ash61 (видеоряд русскоязычный)
Writing library : x264 core 146 r2538 121396c
Encoding settings : cabac=1 / ref=4 / deblock=1:-3:-3 / analyse=0x3:0x113 / me=umh / subme=10 / psy=1 / psy_rd=1.00:0.00 / mixed_ref=1 / me_range=32 / chroma_me=1 / trellis=2 / 8x8dct=1 / cqm=0 / deadzone=21,11 / fast_pskip=1 / chroma_qp_offset=-2 / threads=12 / lookahead_threads=2 / sliced_threads=0 / nr=0 / decimate=1 / interlaced=0 / bluray_compat=0 / constrained_intra=0 / bframes=8 / b_pyramid=2 / b_adapt=2 / b_bias=0 / direct=3 / weightb=1 / open_gop=0 / weightp=2 / keyint=250 / keyint_min=23 / scenecut=40 / intra_refresh=0 / rc_lookahead=60 / rc=crf / mbtree=1 / crf=15.4 / qcomp=0.70 / qpmin=0 / qpmax=69 / qpstep=4 / vbv_maxrate=40000 / vbv_bufsize=30000 / crf_max=0.0 / nal_hrd=none / filler=0 / frame-packing=4 / ip_ratio=1.40 / aq=1:0.70
Language : English
Default : Yes
Forced : No
Audio #1
ID : 2
Format : AC-3
Format/Info : Audio Coding 3
Mode extension : CM (complete main)
Format settings, Endianness : Big
Codec ID : A_AC3
Duration : 1h 48mn
Bit rate mode : Constant
Bit rate : 640 Kbps
Channel(s) : 6 channels
Channel positions : Front: L C R, Side: L R, LFE
Sampling rate : 48.0 KHz
Bit depth : 16 bits
Compression mode : Lossy
Stream size : 498 MiB (6%)
Title : Дубляж - BD CEE
Language : Russian
Default : Yes
Forced : No
Audio #2
ID : 3
Format : AC-3
Format/Info : Audio Coding 3
Mode extension : CM (complete main)
Format settings, Endianness : Big
Codec ID : A_AC3
Duration : 1h 48mn
Bit rate mode : Constant
Bit rate : 640 Kbps
Channel(s) : 6 channels
Channel positions : Front: L C R, Side: L R, LFE
Sampling rate : 48.0 KHz
Bit depth : 16 bits
Compression mode : Lossy
Stream size : 498 MiB (6%)
Title : Original - BD 3D CEE
Language : English
Default : No
Forced : No
Menu
00:00:00.000 : : 1. Пролог
00:00:59.558 : : 2. Гидеон Грей
00:05:50.098 : : 3. Полицейская академия
00:10:05.562 : : 4. Добро пожаловать в Зверополис
00:14:31.537 : : 5. Инспекция парковок
00:18:24.019 : : 6. Лапочки на палочке
00:26:03.353 : : 7. Погоня за Хорьковицем
00:30:57.438 : : 8. Это жульничество
00:37:07.099 : : 9. Клуб натуралистов
00:40:43.440 : : 10. Управление Дорожно-Хвостовой Службы
00:44:31.751 : : 11. Мистер Биг
00:51:40.429 : : 12. Одичавший Манчас
00:55:40.378 : : 13. Гондола
01:00:48.268 : : 14. Помощь Барашкис
01:03:37.855 : : 15. Клиника на Утёсе
01:09:19.822 : : 16. Мы раскрыли дело
01:13:39.163 : : 17. Хопс сдаётся
01:17:07.372 : : 18. Извинения Хопс
01:21:52.364 : : 19. Лаборатория Дугласа
01:28:19.167 : : 20. Музей естественной истории
01:32:43.431 : : 21. Эпилог
01:36:12.140 : : 22. Финальные титры


-Время раздачи: по мере возможности
[Профиль] [ЛС]
Показать сообщения:    
Ответить на тему

Текущее время: 14-Июл 23:50

Часовой пояс: UTC + 3



Вы не можете начинать темы
Вы не можете отвечать на сообщения
Вы не можете редактировать свои сообщения
Вы не можете удалять свои сообщения
Вы не можете голосовать в опросах
Вы не можете прикреплять файлы к сообщениям
Вы не можете скачивать файлы