Лего. Фильм / The Lego Movie (2014, BDRip 1080p от Ash61) Half OverUnder / Вертикальная анаморфная стереопара [Лицензия]

Ответить на тему
 
Автор Сообщение

utermidai ®

Пол: Мужской

Стаж: 6 года 6 месяца

Сообщений: 653

Откуда: Ukraine

Создавать темы 29-Июн-2020 16:24

[Цитировать]

Информация о фильме:
Название: Лего. Фильм
Оригинальное название: The Lego Movie
Страна: Австралия, США, Дания
Студия: Warner Bros. Pictures, Warner Animation Group, Village Roadshow Pictures
Слоган: «Кто был никем, тот всем ещё покажет»
Год выпуска: 1 февраля 2014
Жанр: Мультфильм, Комедия, Приключения, Семейный
Продолжительность: 01:40:35
Перевод: Профессиональный дублированый [Лицензия]
Режиссер: Фил Лорд, Кристофер Миллер

Роли озвучили (дублировали):
Emmet Brickowoski Крис Прэтт (Константин Карасик)
Lord Business / President Business / The Man Upstairs Уилл Феррелл (Александр Ревва, Алексей Колган)
Wyldstyle / Lucy Элизабет Бэнкс (Ирина Киреева)
Batman / Bruce Wayne Уилл Арнетт (Гоша Куценко)
Bad Cop / Good Cop / Pa Cop Лиам Нисон (Владислав Копп)
Vitruvius Морган Фриман (Василий Бочкарев)
Blake Крэйг Берри
Unikitty Элисон Бри (Мария Иващенко)
Octan Robot Дэвид Берроуз
C-3PO Энтони Дэниелс
Benny Чарли Дэй (Дмитрий Филимонов)
Mom Аманда Фаринос
Han Solo Кит Фергюсон (Дмитрий Поляновский)
Abraham Lincoln Уилл Форте (Ян Розенберг)
Wally Дэйв Франко
Gandalf Тодд Хансен (Сергей Чихачев)
Green Lantern Джона Хилл (Данил Щебланов)
Shaq Шакил О’Нил (Михаил Белякович)
Metal Beard Ник Офферман (Гарик Харламов)
Wonder Woman Коби Смолдерс (Светлана Молодцова)
Superman Ченнинг Татум О фильме:
Когда планете угрожает опасность, то среди всех супер-героев человечества, включая игроков НБА 2002 года, не нашлось никого, кто мог бы спасти ситуацию.
Избранным оказывается простой рядовой служащий.
При поддержке супер-героев ему предстоит выполнить самую главную миссию всей его жизни...-- Информация о видео-файле:
Качество: BDRip (by Ash61)
Контейнер: MKV
Формат 3D: Half OverUnder / Вертикальная анаморфная стереопара
Порядок ракурсов: левый ракурс первый
Видео кодек: x264
Аудио кодек: AC3
Видео: AVC / 23,976 fps / 1920х1080p / ~7.7 Mbps
Аудио:
#1 - Русский / AC3 / 48 KHz / 5.1 ch / 448 Kbps(Дубляж - BD CEE)
#2 - Украинский / AC3 / 48 KHz / 5.1 ch / 448 Kbps (Original - BD CEE)
#3 - Английский / AC3 / 48 KHz / 5.1 ch / 640 Kbps (Original - BD 3D)
Субтитры (SRT):
Вшитые (softsub):
#1 - Русские Форсированные (iTunes) (включены по умолчанию)
#2 - Русские Полные (iTunes)
#3 - Украинские Форсированные (iTunes)
#4 - Украинские Полные (iTunes)
#5 - English Full
#6 - English SDH
#7 - English SDH-Colored
Внешние (UTF-8):
#1 - Русские Форсированные (iTunes) (включены по умолчанию)
#2 - Украинские Форсированные (iTunes) Знаете ли вы, что...

Знаете ли вы, что...

Музыка, которую Витрувиус играет на пианино, когда Люси и Эммет заходят в салун, — это регтайм-версия песни «Everything Is Awesome», которая является основной музыкальной темой фильма.
В процессе съемок использовались реальные наборы Lego, в частности личный набор режиссера Кристофера Миллера «Космическая деревня» (Space Village).
В комедии Аристофана «Птицы» рассказывается о птичьем городе между небом и землей, где все устроено идеально. В фильме фигурирует аналогичный город, откуда родом Юникитти, где нет никаких правил и ограничений.
Это первый анимационный фильм для Моргана Фримана.
Персонаж фильма Бенни (космонавт) — парень из 1980-х. Его фигурка выглядит так, как если бы этой игрушкой играло несколько поколений детей. Это заметно по потертому логотипу и сломанному шлему. Причем трещина на шлеме сделана именно в том месте, где, как правило, ломались реальные фигурки Lego.
Лорд Бизнес — президент Октана, вымышленной бензоколонки, которая впервые появилась в 1992 году и с тех пор неоднократно появлялась в различных наборах Lego.
Создатели намеренно пытались снять фильм в духе stop-motion, а также сделать так, чтобы спецэффекты не выглядели слишком очевидными. Все это для того, чтобы на экране все выглядело как в настоящем Lego.
Посох мага Витрувиуса на самом деле является палочкой от леденца.
Эммет ездит на модифицированном маленьком автомобиле 3177 из линейки Lego City`s 2010. Отличается он только изогнутым передним бампером и зеркалами. Эта модель в итоге была выпущена в рекламном наборе под названием «Машина Эммета» (Emmet`s Car) или «Летающий автомобиль» (Fly Car).
Витрувием звали римского архитектора, жившего в I веке до н. э. А слово «архитектор» пошло от греческих слов «главный» (master) и «строитель» (builder).
Цифры, которые можно заметить на детальках, — это официальные идентификаторы элементов Lego (Lego Element ID).
Специальная накидка Лорда Бизнеса на самом деле выполнена в форме гигантского галстука.
Это уже второй раз для Уилла Форте, когда он озвучивал Авраама Линкольна. Первый раз был в сериале «Школа клонов» (2002-2003).
«Крик Вильгельма» можно услышать в сцене погони на мотоциклах, когда Люси выбрасывает байкера.
На главные роли в фильме рассматривались Эмма Стоун и Роберт Дауни-мл.
В 2012 году рассматривался такой актерский состав: Эммет — Роберт Дауни-мл., Дикарка — Эмма Стоун, Витрувиус — Николас Кейдж, Бэтмен — Кристофер Ли, Бенни — Саша Барон Коэн, Железная Борода — Стивен Рут.
Фраза Бэтмена о том, что Эммет — это герой, которого Люси заслуживает, является отсылкой к финальной речи комиссара Гордона в фильме «Темный рыцарь» (2008).
Когда Дикарка спасает Эммета, она протягивает ему руку и говорит: «Идем со мной, если хочешь жить». Это является отсылкой к серии фильмов про Терминатора.
В квартире Эммета висят плакаты фильмов «Мачо и ботан» (2012), «Гадкий я» (2010) и еще многих других картин.
Одного великого мастера зовут Эль-Мачо Рестлер. Так зовут главного антагониста фильма «Гадкий я 2» (2013).
В баре в Старом Западе можно заметить главного бандита из фильма «Одинокий рейнджер» (2013).
Mедиа инфо

M/инфо

General
Unique ID : 176799344480802508442799145330935523458 (0x850250AEDFABF8B996AE0DE7F07AE882)
Complete name : E:TheLegoMovie(2014)3D-halfOU(Ash61)TheLegoMovie(2014)3D-halfOU(Ash61).mkv
Format : Matroska
Format version : Version 2
File size : 6.59 GiB
Duration : 1h 40mn
Overall bit rate : 9 376 Kbps
Movie name : Лего. Фильм / The Lego Movie (2014) 3D
Encoded date : UTC 2014-06-13 12:38:54
Writing application : mkvmerge v5.8.0 ('No Sleep / Pillow') built on Sep 2 2012 15:37:04
Writing library : libebml v1.2.3 + libmatroska v1.3.0
Video
ID : 1
Format : AVC
Format/Info : Advanced Video Codec
Format profile : High@L4.1
Format settings, CABAC : Yes
Format settings, ReFrames : 4 frames
Codec ID : V_MPEG4/ISO/AVC
Duration : 1h 40mn
Bit rate : 7 653 Kbps
Width : 1 920 pixels
Height : 1 080 pixels
Display aspect ratio : 16:9
Frame rate mode : Constant
Frame rate : 23.976 fps
Color space : YUV
Chroma subsampling : 4:2:0
Bit depth : 8 bits
Scan type : Progressive
Bits/(Pixel*Frame) : 0.154
Stream size : 5.38 GiB (82%)
Title : BDRip by Ash61
Writing library : x264 core 129 r2245 bc13772
Encoding settings : cabac=1 / ref=4 / deblock=1:-3:-3 / analyse=0x3:0x113 / me=umh / subme=10 / psy=1 / psy_rd=1.00:0.15 / mixed_ref=1 / me_range=32 / chroma_me=1 / trellis=2 / 8x8dct=1 / cqm=0 / deadzone=21,11 / fast_pskip=1 / chroma_qp_offset=-3 / threads=12 / lookahead_threads=2 / sliced_threads=0 / nr=0 / decimate=1 / interlaced=0 / bluray_compat=0 / constrained_intra=0 / bframes=9 / b_pyramid=2 / b_adapt=2 / b_bias=0 / direct=3 / weightb=1 / open_gop=0 / weightp=2 / keyint=250 / keyint_min=23 / scenecut=40 / intra_refresh=0 / rc_lookahead=60 / rc=crf / mbtree=1 / crf=17.0 / qcomp=0.70 / qpmin=0 / qpmax=69 / qpstep=4 / vbv_maxrate=40000 / vbv_bufsize=30000 / crf_max=0.0 / nal_hrd=none / frame-packing=4 / ip_ratio=1.40 / aq=1:0.70
Language : English
Default : Yes
Forced : No
Audio #1
ID : 2
Format : AC-3
Format/Info : Audio Coding 3
Mode extension : CM (complete main)
Format settings, Endianness : Big
Codec ID : A_AC3
Duration : 1h 40mn
Bit rate mode : Constant
Bit rate : 448 Kbps
Channel(s) : 6 channels
Channel positions : Front: L C R, Side: L R, LFE
Sampling rate : 48.0 KHz
Bit depth : 16 bits
Compression mode : Lossy
Stream size : 322 MiB (5%)
Title : Дубляж - BD CEE
Language : Russian
Default : Yes
Forced : No
Audio #2
ID : 3
Format : AC-3
Format/Info : Audio Coding 3
Mode extension : CM (complete main)
Format settings, Endianness : Big
Codec ID : A_AC3
Duration : 1h 40mn
Bit rate mode : Constant
Bit rate : 448 Kbps
Channel(s) : 6 channels
Channel positions : Front: L C R, Side: L R, LFE
Sampling rate : 48.0 KHz
Bit depth : 16 bits
Compression mode : Lossy
Stream size : 322 MiB (5%)
Title : Дубляж - BD CEE
Language : Ukrainian
Default : No
Forced : No
Audio #3
ID : 4
Format : AC-3
Format/Info : Audio Coding 3
Mode extension : CM (complete main)
Format settings, Endianness : Big
Codec ID : A_AC3
Duration : 1h 40mn
Bit rate mode : Constant
Bit rate : 640 Kbps
Channel(s) : 6 channels
Channel positions : Front: L C R, Side: L R, LFE
Sampling rate : 48.0 KHz
Bit depth : 16 bits
Compression mode : Lossy
Stream size : 460 MiB (7%)
Title : Original - BD 3D
Language : English
Default : No
Forced : No
Text #1
ID : 5
Format : UTF-8
Codec ID : S_TEXT/UTF8
Codec ID/Info : UTF-8 Plain Text
Title : Форсированные (iTunes)
Language : Russian
Default : Yes
Forced : No
Text #2
ID : 6
Format : UTF-8
Codec ID : S_TEXT/UTF8
Codec ID/Info : UTF-8 Plain Text
Title : Полные (iTunes)
Language : Russian
Default : No
Forced : No
Text #3
ID : 7
Format : UTF-8
Codec ID : S_TEXT/UTF8
Codec ID/Info : UTF-8 Plain Text
Title : Форсированные (iTunes)
Language : Ukrainian
Default : No
Forced : No
Text #4
ID : 8
Format : UTF-8
Codec ID : S_TEXT/UTF8
Codec ID/Info : UTF-8 Plain Text
Title : Полные (iTunes)
Language : Ukrainian
Default : No
Forced : No
Text #5
ID : 9
Format : UTF-8
Codec ID : S_TEXT/UTF8
Codec ID/Info : UTF-8 Plain Text
Title : Full
Language : English
Default : No
Forced : No
Text #6
ID : 10
Format : UTF-8
Codec ID : S_TEXT/UTF8
Codec ID/Info : UTF-8 Plain Text
Title : SDH
Language : English
Default : No
Forced : No
Text #7
ID : 11
Format : UTF-8
Codec ID : S_TEXT/UTF8
Codec ID/Info : UTF-8 Plain Text
Title : SDH-Colored
Language : English
Default : No
Forced : No
Menu
00:00:00.000 : :1
00:09:44.042 : :2
00:18:18.389 : :3
00:29:50.747 : :4
00:38:48.034 : :5
00:48:45.047 : :6
00:57:49.424 : :7
01:06:05.253 : :8
01:16:24.205 : :9
01:25:56.151 : :10
01:32:57.322 : :11


-Время раздачи: по мере возможности
[Профиль] [ЛС]
Показать сообщения:    
Ответить на тему

Текущее время: 12-Июл 19:32

Часовой пояс: UTC + 3



Вы не можете начинать темы
Вы не можете отвечать на сообщения
Вы не можете редактировать свои сообщения
Вы не можете удалять свои сообщения
Вы не можете голосовать в опросах
Вы не можете прикреплять файлы к сообщениям
Вы не можете скачивать файлы