Камасутра 3D / Kamasutra 3D (2012, BDRip 1080p от Ash61) Half OverUnder / Вертикальная анаморфная стереопара

Ответить на тему
 
Автор Сообщение

utermidai ®

Пол: Мужской

Стаж: 6 года 6 месяца

Сообщений: 652

Откуда: Ukraine

Создавать темы 29-Июн-2020 18:09

[Цитировать]


Информация о фильме:
Название: Камасутра 3D
Оригинальное название: Kamasutra 3D
Страна: Германия
Год выпуска: 23 апреля 2012
Производство: Los Banditos Films
Жанр: Обучающее видео, Эротика, Документальный
Продолжительность: 00:47:12
Перевод: Не обязателен
Режиссер: Амир Эссади

О фильме:
Никогда еще секс не был таким объемным!
Впервые вы сможете не только почитать, но и посмотреть Камасутру в формате 3D! Ответы на вопросы, которые вы стеснялись задать.
Любовные игры и позы, которые даже не приходили вам в голову.
Техники, которые выведут вас на новый уровень.
Это и многое другое подробно в книге и наглядно в трехмерном изображении.-- Информация о видео-файле:
Качество: BDRip (by Ash61)
Контейнер: MKV
Формат 3D: Half OverUnder / Вертикальная анаморфная стереопара
Порядок ракурсов: левый ракурс первый
Видео кодек: x264
Аудио кодек: AC3
Видео:
AVC / 23,976 fps / 1920х1080p / 10.1 Mbps
Аудио:
#1 - Английский / AC3 / 48 KHz / 2 ch / 448 Kbps (BD 3D)
Субтитры(SRT):
Внешние (UTF-8):
#1 - Английские Форсированные (Названия поз) (включены по умолчанию)
Вшитые (softsub):
#1 - Русские Форсированные (Названия поз) (включены по умолчанию)
Доп. инфо:
Отдельным файлом добавил Бонус с БД 3Д.
Возрастное ограничение:
Mедиа инфо

M/инфо

General
Unique ID : 195995002707475465963968246027194606310 (0x937343B412E5DFA0A1A512DABAEA22E6)
Complete name : E:Kamasutra3D(2012)3D-halfOU(Ash61)EngKamasutra3D(2012)3D-halfOU(Ash61)Eng.mkv
Format : Matroska
Format version : Version 2
File size : 3.54 GiB
Duration : 47mn 11s
Overall bit rate : 10.8 Mbps
Movie name : Камасутра 3D / Kamasutra 3D (2012) 3D
Encoded date : UTC 2014-12-10 16:43:57
Writing application : mkvmerge v5.8.0 ('No Sleep / Pillow') built on Sep 2 2012 15:37:04
Writing library : libebml v1.2.3 + libmatroska v1.3.0
Video
ID : 1
Format : AVC
Format/Info : Advanced Video Codec
Format profile : High@L4.1
Format settings, CABAC : Yes
Format settings, ReFrames : 4 frames
Codec ID : V_MPEG4/ISO/AVC
Duration : 47mn 11s
Bit rate : 10.1 Mbps
Width : 1 920 pixels
Height : 1 080 pixels
Display aspect ratio : 16:9
Frame rate mode : Constant
Frame rate : 23.976 fps
Color space : YUV
Chroma subsampling : 4:2:0
Bit depth : 8 bits
Scan type : Progressive
Bits/(Pixel*Frame) : 0.203
Stream size : 3.33 GiB (94%)
Title : BDRip by Ash61
Writing library : x264 core 138 r2358 9e941d1
Encoding settings : cabac=1 / ref=4 / deblock=1:-3:-3 / analyse=0x3:0x113 / me=umh / subme=10 / psy=1 / psy_rd=1.00:0.00 / mixed_ref=1 / me_range=32 / chroma_me=1 / trellis=2 / 8x8dct=1 / cqm=0 / deadzone=21,11 / fast_pskip=1 / chroma_qp_offset=-2 / threads=12 / lookahead_threads=2 / sliced_threads=0 / nr=0 / decimate=1 / interlaced=0 / bluray_compat=0 / constrained_intra=0 / bframes=8 / b_pyramid=2 / b_adapt=2 / b_bias=0 / direct=3 / weightb=1 / open_gop=0 / weightp=2 / keyint=250 / keyint_min=23 / scenecut=40 / intra_refresh=0 / rc_lookahead=60 / rc=crf / mbtree=1 / crf=17.5 / qcomp=0.70 / qpmin=0 / qpmax=69 / qpstep=4 / vbv_maxrate=40000 / vbv_bufsize=30000 / crf_max=0.0 / nal_hrd=none / frame-packing=4 / ip_ratio=1.40 / aq=1:0.70
Default : Yes
Forced : No
Audio #1
ID : 2
Format : AC-3
Format/Info : Audio Coding 3
Mode extension : CM (complete main)
Format settings, Endianness : Big
Codec ID : A_AC3
Duration : 47mn 11s
Bit rate mode : Constant
Bit rate : 448 Kbps
Channel(s) : 2 channels
Channel positions : Front: L R
Sampling rate : 48.0 KHz
Bit depth : 16 bits
Compression mode : Lossy
Stream size : 151 MiB (4%)
Language : English
Default : Yes
Forced : No
Text
ID : 3
Format : UTF-8
Codec ID : S_TEXT/UTF8
Codec ID/Info : UTF-8 Plain Text
Title : Forced
Language : English
Default : Yes
Forced : No
Menu
00:00:00.000 : :1
00:03:59.698 : :2
00:14:34.332 : :3
00:21:34.418 : :4
00:32:10.720 : :5
00:40:17.457 : :6


-Время раздачи: по мере возможности
[Профиль] [ЛС]
Показать сообщения:    
Ответить на тему

Текущее время: 14-Июл 03:58

Часовой пояс: UTC + 3



Вы не можете начинать темы
Вы не можете отвечать на сообщения
Вы не можете редактировать свои сообщения
Вы не можете удалять свои сообщения
Вы не можете голосовать в опросах
Вы не можете прикреплять файлы к сообщениям
Вы не можете скачивать файлы