Лунный свет / Lichtmond (2010, BDRip by Ash61) Half OverUnder / Вертикальная анаморфная стереопара

Ответить на тему
Статистика раздачи
Нет
   
 
Автор Сообщение

utermidai ®

Стаж: 6 года 7 месяца

Сообщений: 609

Откуда: Ukraine

Создавать темы 06-Июл-2020 20:36

[Цитировать]


Информация о фильме:
Название: Лунный свет
Оригинальное название: Lichtmond
Страна: Германия
Год выпуска: 1 октября 2010
Производство: Avenue Music [Alive]
Жанр: Анимация, Музыка, Видовой, Релакс
Продолжительность: 00:48:46
Перевод: Не требуется
Авторы проекта: Giorgio & Martin Koppehele
Стихи читает: Thomas E.Killinger
Вокал: Meera Fe, Saskia Philips, Thomas E.Killinger, Karen Kassulat
Музыка: Giorgio, Suna, Martin & Gabi Koppehele, Meera Fe, Karen Kassulat, Boy George, John Themis, Emily Themis О фильме:
Потрясающее путешествие в фэнтези, в лучах лунного света через волшебные звуки. Погрузитесь в неординарную музыку и пусть ваши FullHD экраны превратятся на один час в двери сказочных миров, которые до селе Вам не приходилось видеть, но наверняка вы мечтали о них. Это удивительное Blu-ray издание, с уникальным звуковым рядом, как по качеству так и по наполнению невиданной красоты видеорядом футуристических 3D миров. Ни в коем случае не пропустите этот диск, пусть он наполнит Ваш дом, яркими красками и высококачественным божественным звучанием произведений Giorgio и Martin Koppehele.
Братья Koppehele, авторы пользующиеся заслуженной популярностью среди любителей многоканальной музыки, и не только, представляют новый проект - "Lichtmond" ("Лунный свет"). Альбом в стиле эмбиент-поп, выпущен на трех носителях: CD, DVD и Blu-ray. На DVD содержится 5.1-канальное аудио; на Blu-ray - 7.1; 5.1; PCM-2.0 и видео высокого разрешения. Визуальная часть на DVD и BD представляет собой анимацию испанского художника-мультипликатора Diego M. Bonati, студии Imago-D - фантастические миры, созданные специально для "Lichtmond".-- Информация о видео-файле:
Качество: BDRip (by Ash61)
Контейнер: MKV
Формат 3D: Half OverUnder / Вертикальная анаморфная стереопара
Порядок ракурсов: левый ракурс первый
Видео кодек: x264
Аудио кодек: AC3, DTS-HD MA
Видео:
AVC / 23,976 fps / 1920х1080p / 13.2 Mbps
Аудио:
#1 - Немецкий / AC3 / 48 KHz / 5.1 ch / 640 Kbps (Original - BD3D)
#2 - Немецкий / DTS-HD MA / 96 KHz / 5.1 ch / 6443 Kbps (Original - BD3D) [отдельным файлом]
Субтитры(Отсутствуют): Mедиа инфо

M/инфо

General
Unique ID : 205028715467587976970689955651654899813 (0x9A3F182147EFD7BE8DC0A43F9D91D865)
Complete name : E:LichtMondLichtMond3D.halfOU.AC3.ash61.mkv
Format : Matroska
Format version : Version 2
File size : 4.82 GiB
Duration : 48mn 46s
Overall bit rate : 14.2 Mbps
Movie name : LichtMond3D.halfOU.AC3-5.1.ash61
Encoded date : UTC 2011-07-18 16:42:57
Writing application : mkvmerge v3.4.0 ('Rapunzel') сборка от May 15 2010 09:38:20
Writing library : libebml v0.8.0 + libmatroska v0.9.0
Video
ID : 1
Format : AVC
Format/Info : Advanced Video Codec
Format profile : High@L4.1
Format settings, CABAC : Yes
Format settings, ReFrames : 4 frames
Codec ID : V_MPEG4/ISO/AVC
Duration : 48mn 46s
Bit rate : 13.2 Mbps
Width : 1 920 pixels
Height : 1 080 pixels
Display aspect ratio : 16:9
Frame rate mode : Constant
Frame rate : 23.976 fps
Color space : YUV
Chroma subsampling : 4:2:0
Bit depth : 8 bits
Scan type : Progressive
Bits/(Pixel*Frame) : 0.266
Stream size : 4.51 GiB (93%)
Title : Rip by Ash61
Writing library : x264 core 113 r1884 7313bb5
Encoding settings : cabac=1 / ref=4 / deblock=1:-3:-3 / analyse=0x3:0x113 / me=umh / subme=9 / psy=1 / psy_rd=1.00:0.15 / mixed_ref=1 / me_range=16 / chroma_me=1 / trellis=2 / 8x8dct=1 / cqm=0 / deadzone=21,11 / fast_pskip=1 / chroma_qp_offset=-3 / threads=3 / sliced_threads=0 / nr=0 / decimate=1 / interlaced=0 / constrained_intra=0 / bframes=6 / b_pyramid=2 / b_adapt=2 / b_bias=0 / direct=3 / weightb=1 / open_gop=0 / weightp=2 / keyint=250 / keyint_min=23 / scenecut=40 / intra_refresh=0 / rc_lookahead=60 / rc=crf / mbtree=1 / crf=18.0 / qcomp=0.70 / qpmin=1 / qpmax=51 / qpstep=4 / ip_ratio=1.40 / aq=1:1.00
Default : Yes
Forced : No
Audio #1
ID : 2
Format : AC-3
Format/Info : Audio Coding 3
Mode extension : CM (complete main)
Format settings, Endianness : Big
Codec ID : A_AC3
Duration : 48mn 46s
Bit rate mode : Constant
Bit rate : 640 Kbps
Channel(s) : 6 channels
Channel positions : Front: L C R, Side: L R, LFE
Sampling rate : 48.0 KHz
Bit depth : 16 bits
Compression mode : Lossy
Stream size : 223 MiB (5%)
Title : AC3-5.1-640 Kbps-48.0 KHz-16 bits
Default : Yes
Forced : No
Menu
00:00:00.000 : :Awakening
00:01:37.139 : :Early Dew
00:06:25.093 : :Sounds of Distance
00:10:50.567 : :Rays of Moonlight
00:17:00.061 : :Do you believe in Love
00:22:19.547 : :Me & You
00:28:20.198 : :Shine on me
00:34:33.655 : :Serenity
00:40:56.037 : :Save me
00:46:47.471 : :Sunset


-Время раздачи: по мере возможности
[Профиль] [ЛС]
Показать сообщения:    
Ответить на тему

Текущее время: 12-Авг 15:52

Часовой пояс: UTC + 3



Вы не можете начинать темы
Вы не можете отвечать на сообщения
Вы не можете редактировать свои сообщения
Вы не можете удалять свои сообщения
Вы не можете голосовать в опросах
Вы не можете прикреплять файлы к сообщениям
Вы не можете скачивать файлы