Лунный свет 3: Дни вечности в 3Д / Lichtmond 3: Days of Eternity 3D (2014, Giorgio & Martin Koppehele, BDRip-AVC) Half OverUnder / Вертикальная анаморфная стереопара

Ответить на тему
Статистика раздачи
Нет
   
 
Автор Сообщение

utermidai ®

Стаж: 6 года 6 месяца

Сообщений: 603

Откуда: Ukraine

Создавать темы 06-Июл-2020 23:13

[Цитировать]


Информация о фильме:
Название: Лунный свет 3: Дни вечности
Оригинальное название: Lichtmond 3: Days of Eternity
Страна: Германия
Год выпуска: 01.01.2014
Производство: Blu Phase Media GmbH, IMAGO-D Studios
Жанр: Анимация, Музыка, Видовой, Релакс
Продолжительность: 00:50:03
Перевод: Не требуется
Авторы проекта: Giorgio & Martin Koppehele
Музыка и тексты: Giorgio, Suna, Martin и Gabi Koppehele, Meera Fe, Karen Kassulat, I Muvrini, Midge Ure, Sky du Mont
Вокал: Meera Fe, Martin Koppehele, I Muvrini, Karen Kassulat, Thomas E. Killinger, Midge Ure, Suna Koppehele
Стихи читает: Thomas E. Killinger О фильме:
Своим третьим альбомом Lichtmond 3: Days of Eternity братья Giorgio и Martin Koppehele продолжают свой путь путешествием по первозданному миру фантастической планеты Хронос, где время растворяется в эстетике звука и изображения...-- Информация о видео-файле:
Качество: BDRip (by Ash61)
Контейнер: MKV
Формат 3D: Half OverUnder / Вертикальная анаморфная стереопара
Порядок ракурсов: левый ракурс первый
Видео кодек: x264
Аудио кодек: AC3, DTS-HD MA
Видео:
AVC / 23,976 fps / 1920х1080p / 16.1 Mbps
Аудио:
#1 - Английский / AC3 / 5.1 ch / 48 KHz / 640 Kbps (BD 3D)
#2 - Английский / Auro 3D / 9.1ch /48 kHz / 4777 kbps / 24-bit (отдельным файлом)
Субтитры(Отсутствуют):
Доп. инфо: Трек-лист в МедиаИнфо.
В данных дорогах стихи и песни на английском.
Mедиа инфо

M/инфо

General
Unique ID : 254010584687830197430648709062837900464 (0xBF18A8BC5C68183E9CFEF504B61F94B0)
Complete name : E:Lichtmond3(2014)3D-halfOU(Ash61).mkv
Format : Matroska
Format version : Version 2
File size : 5.99 GiB
Duration : 50mn 2s
Overall bit rate : 17.1 Mbps
Movie name : Лунный свет 3: Дни вечности / Lichtmond 3: Days of Eternity (2014) 3D
Encoded date : UTC 2014-10-26 06:43:47
Writing application : mkvmerge v5.8.0 ('No Sleep / Pillow') built on Sep 2 2012 15:37:04
Writing library : libebml v1.2.3 + libmatroska v1.3.0
Video
ID : 1
Format : AVC
Format/Info : Advanced Video Codec
Format profile : High@L4.1
Format settings, CABAC : Yes
Format settings, ReFrames : 4 frames
Codec ID : V_MPEG4/ISO/AVC
Duration : 50mn 2s
Bit rate : 16.1 Mbps
Width : 1 920 pixels
Height : 1 080 pixels
Display aspect ratio : 16:9
Frame rate mode : Constant
Frame rate : 23.976 fps
Color space : YUV
Chroma subsampling : 4:2:0
Bit depth : 8 bits
Scan type : Progressive
Bits/(Pixel*Frame) : 0.325
Stream size : 5.64 GiB (94%)
Title : BDRip by Ash61
Writing library : x264 core 138 r2358 9e941d1
Encoding settings : cabac=1 / ref=4 / deblock=1:-3:-3 / analyse=0x3:0x113 / me=umh / subme=10 / psy=1 / psy_rd=1.00:0.15 / mixed_ref=1 / me_range=32 / chroma_me=1 / trellis=2 / 8x8dct=1 / cqm=0 / deadzone=21,11 / fast_pskip=1 / chroma_qp_offset=-3 / threads=12 / lookahead_threads=2 / sliced_threads=0 / nr=0 / decimate=1 / interlaced=0 / bluray_compat=0 / constrained_intra=0 / bframes=8 / b_pyramid=2 / b_adapt=2 / b_bias=0 / direct=3 / weightb=1 / open_gop=0 / weightp=2 / keyint=250 / keyint_min=23 / scenecut=40 / intra_refresh=0 / rc_lookahead=60 / rc=crf / mbtree=1 / crf=17.0 / qcomp=0.70 / qpmin=0 / qpmax=69 / qpstep=4 / vbv_maxrate=40000 / vbv_bufsize=30000 / crf_max=0.0 / nal_hrd=none / frame-packing=4 / ip_ratio=1.40 / aq=1:0.70
Language : German
Default : Yes
Forced : No
Audio #1
ID : 2
Format : AC-3
Format/Info : Audio Coding 3
Mode extension : CM (complete main)
Format settings, Endianness : Big
Codec ID : A_AC3
Duration : 50mn 2s
Bit rate mode : Constant
Bit rate : 640 Kbps
Channel(s) : 6 channels
Channel positions : Front: L C R, Side: L R, LFE
Sampling rate : 48.0 KHz
Bit depth : 16 bits
Compression mode : Lossy
Stream size : 229 MiB (4%)
Title : Музыка - BD 3D
Language : English
Default : Yes
Forced : No
Menu
00:00:00.000 : :1. Nightflight to Chronos Part 1
00:01:38.932 : :2. Nightflight to Chronos Part 2
00:03:49.646 : :3. Feel the Spirit (vocal Meera Fe)
00:10:25.041 : :4. Wheel of Time (vocal Martin Koppehele)
00:15:42.775 : :5. Catching Rainbows (vocal Meera Fe)
00:21:57.650 : :6. Empires of the Past (poem Sky du Mont; vocal Meera Fe)
00:28:51.229 : :7. Days of Eternity (vocal I Muvrini, Karen Kassulat & Thomas E. Killinger)
00:34:59.306 : :8. Space and Beyond
00:40:17.040 : :9. Endless Moments (vocal Midge Ure & Suna Koppehele)
00:46:34.166 : :10. Leaving Chronos


-Время раздачи: по мере возможности
[Профиль] [ЛС]
Показать сообщения:    
Ответить на тему

Текущее время: 06-Авг 09:25

Часовой пояс: UTC + 3



Вы не можете начинать темы
Вы не можете отвечать на сообщения
Вы не можете редактировать свои сообщения
Вы не можете удалять свои сообщения
Вы не можете голосовать в опросах
Вы не можете прикреплять файлы к сообщениям
Вы не можете скачивать файлы