Лунный свет 2: Вселенная света в 3Д / Lichtmond 2: Universe of Light 3D (2012, Giorgio & Martin Koppehele, BDRip-AVC) Half OverUnder / Вертикальная анаморфная стереопара

Ответить на тему
Статистика раздачи
Нет
   
 
Автор Сообщение

utermidai ®

Стаж: 6 года 7 месяца

Сообщений: 609

Откуда: Ukraine

Создавать темы 07-Июл-2020 10:38

[Цитировать]


Информация о фильме:
Название: Лунный свет 2: Вселенная света
Оригинальное название: Lichtmond 2: Universe of Light
Страна: Германия
Год выпуска: 01.01.2012
Производство: Blu Phase Media GmbH, Avenue Music
Жанр: Анимация, Музыка, Видовой, Релакс
Продолжительность: 00:53:09
Перевод: Отсутствует
Авторы проекта: Giorgio & Martin Koppehele
Музыка и тексты композиций: Giorgio, Suna, Martin и Gabi Koppehele, Alan Parsons, SubClones, Meera Fe, Karen Kassulat, I Muvrini
Вокал: Meera Fe, Saskia Philipps, Alan Parsons, SubClones
Стихи читает: Thomas E. Killinger
Хор: Alan Parsons, SubClones, Giorgio, Suna, Martin и Gabi Koppehele, I Muvrini, Karen Kassulat, Thomas E. Killinger, Meera Fe, Saskia Philipps
Инструменталисты: Alan Parsons, SubClones, Manuel Lopez, John Themis, Giorgio, Martin & Suna Koppehele
Танцовщица: Penelope Guisasola
Стихи: Gabi Koppehele О фильме:
Второй мультимедийный порект "Lichtmond" - Universe of Light (Вселенная света) подготовлен совместно с музыкальной легендой Alan Parsons. Мировая премьера состоялась в Гамбургском Планетарии в сентябре 2012 года - уникальное 360° шоу всех времен и народов. "Выше, быстрее, шире и все в XXL" - путешествие в фэнтези, в лучах лунного света через волшебные звуки, еще более масштабно и профессионально чем в первом фильме.
Погрузитесь в неординарную музыку и пусть ваши FullHD экраны превратятся на один час в двери сказочных миров, которые до селе Вам не приходилось видеть, но наверняка вы мечтали о них.-- Информация о видео-файле:
Качество: BDRip (by Ash61)
Контейнер: MKV
Формат 3D: Half OverUnder / Вертикальная анаморфная стереопара
Порядок ракурсов: левый ракурс первый
Видео кодек: x264
Аудио кодек: AC3
Видео:
AVC / 23,976 fps / 1920х1080p / 15.9 Mbps
Аудио:
- AC3 / 48 KHz / 5.1 ch / 640 Kbps (песни на английском, стихи на немецком)
Субтитры(Отсутствуют):
Доп. инфо: 3Д, в основном, очень глубокое.
Треклист и тайминги - в МедиаИнфо.
Проверено на встроенном плейере ТВ Samsung UE-C7000
Mедиа инфо

M/инфо

General
Unique ID : 190968302950672914125645777704753224540 (0x8FAB284558D5C891B384AD674AC2DB5C)
Complete name : G:\Downloads\Lichtmond2.UniverseOfLight(3D)2012.halfOU(Ash61)\Lichtmond2.UniverseOfLight(3D)2012.halfOU.Ger(Ash61).mkv
Format : Matroska
Format version : Version 2
File size : 6.26 GiB
Duration : 53mn 8s
Overall bit rate : 16.9 Mbps
Movie name : Lichtmond 2: Universe of Light (3D) 2012 (by Ash61)
Encoded date : UTC 2012-10-05 10:53:05
Writing application : mkvmerge v5.8.0 ('No Sleep / Pillow') built on Sep 2 2012 15:37:04
Writing library : libebml v1.2.3 + libmatroska v1.3.0
Video
ID : 1
Format : AVC
Format/Info : Advanced Video Codec
Format profile : High@L4.1
Format settings, CABAC : Yes
Format settings, ReFrames : 4 frames
Codec ID : V_MPEG4/ISO/AVC
Duration : 53mn 8s
Bit rate : 15.9 Mbps
Width : 1 920 pixels
Height : 1 080 pixels
Display aspect ratio : 16:9
Frame rate mode : Constant
Frame rate : 23.976 fps
Color space : YUV
Chroma subsampling : 4:2:0
Bit depth : 8 bits
Scan type : Progressive
Bits/(Pixel*Frame) : 0.320
Stream size : 5.90 GiB (94%)
Title : BDrip by Ash61
Writing library : x264 core 119 r2106 07efeb4
Encoding settings : cabac=1 / ref=4 / deblock=1:-3:-3 / analyse=0x3:0x113 / me=umh / subme=9 / psy=1 / psy_rd=1.00:0.15 / mixed_ref=1 / me_range=16 / chroma_me=1 / trellis=2 / 8x8dct=1 / cqm=0 / deadzone=21,11 / fast_pskip=1 / chroma_qp_offset=-3 / threads=12 / sliced_threads=0 / nr=0 / decimate=1 / interlaced=0 / bluray_compat=0 / constrained_intra=0 / bframes=6 / b_pyramid=2 / b_adapt=2 / b_bias=0 / direct=3 / weightb=1 / open_gop=0 / weightp=2 / keyint=250 / keyint_min=23 / scenecut=40 / intra_refresh=0 / rc_lookahead=60 / rc=crf / mbtree=1 / crf=16.5 / qcomp=0.70 / qpmin=0 / qpmax=69 / qpstep=4 / vbv_maxrate=40000 / vbv_bufsize=40000 / crf_max=0.0 / nal_hrd=none / frame-packing=4 / ip_ratio=1.40 / aq=1:0.70
Default : Yes
Forced : No
Audio #1
ID : 2
Format : AC-3
Format/Info : Audio Coding 3
Mode extension : CM (complete main)
Format settings, Endianness : Big
Codec ID : A_AC3
Duration : 53mn 8s
Bit rate mode : Constant
Bit rate : 640 Kbps
Channel(s) : 6 channels
Channel positions : Front: L C R, Side: L R, LFE
Sampling rate : 48.0 KHz
Bit depth : 16 bits
Compression mode : Lossy
Stream size : 243 MiB (4%)
Title : Music
Default : Yes
Forced : No
Menu
00:00:00.000 : :1. Solar Dust Part 1
00:02:20.140 : :2. Solar Dust Part 2
00:06:28.388 : :3. Soul Affinity
00:11:34.694 : :4. Distant Dream
00:17:54.073 : :5. Universe of Light
00:23:56.435 : :6. Magic Forest
00:29:13.835 : :7. State of Mind
00:35:16.114 : :8. Moments of Joy (feat. I MURVINI & Karen Kassulat)
00:41:29.487 : :9. Precious Life (feat. ALAN PARSONS & the SubClones)
00:47:44.361 : :10. Lunar Dust
00:50:56.762 : :11. Credits


-Время раздачи: по мере возможности
[Профиль] [ЛС]
Показать сообщения:    
Ответить на тему

Текущее время: 12-Авг 15:55

Часовой пояс: UTC + 3



Вы не можете начинать темы
Вы не можете отвечать на сообщения
Вы не можете редактировать свои сообщения
Вы не можете удалять свои сообщения
Вы не можете голосовать в опросах
Вы не можете прикреплять файлы к сообщениям
Вы не можете скачивать файлы