Ханна / Hanna (Сезон 2 , Серия 1-8 из 8) (Сара Адина, Андерс Энгстрем) [2020, Боевик, драма,WEB-DLRip - HEVC 10bit - 1080p] [LostFilm+NewStudio+Eng]+[Subs Rus , ENG]

Ответить на тему
Статистика раздачи
Нет
   
 
Автор Сообщение

Враг Нароода ®

Стаж: 4 года 7 месяца

Сообщений: 328

Создавать темы 07-Июл-2020 18:26

[Цитировать]

---- Ханна / Hanna (Сезон 2 , Серия 1-8 из 8) - Полный Комплект -- --Год выпуска: 2020
Выпущено: США , Amazon Studios, NBC Universal International, Tomorrow Studios, Working Title Television
Жанр: Боевик, драма
Продолжительность: 00:50:00
Сезон:2
Серия:1-8
Количество серий в сезоне: 8--Озвучка #1: Профессиональный многоголосый - LostFilm - Русский
Озвучка 2: Профессиональный многоголосый - NewStudio - Русский
Озвучка #3: Профессиональный многоголосый -Английский - Оригинал
Субтитры (UTF-8): Russian (включены по умолчанию), English (SDH), English (Original)
--Релиз Без Рекламы --IMDb 7.5 --Режиссеры:
Сара Адина, Андерс Энгстрем, Джон Джонс--В ролях: Эсме Крид-Майлс, Мирей Инос, Юэль Киннаман, Рианна Баррето, Фелисьен Джаттнер, Халид Абдалла, Кемаал Дин-Эллис, Фалдут Шарма, Бенно Фюрман, Катарина Хайер, Ноа Тейлор, Урсула Вернер, Джасмин Брейнберг, Лео Флэнеган, Варада Сету--
Эрик Хеллер – хороший отец. Он воспитывает свою дочь в одиночку, поэтому ему не просто. Но его дочь умеет водить машину, знает несколько языков, умеет пользоваться огнестрельным и холодным оружием, владеет рукопашным боем, и другими навыками, не свойственными 16-летним девушкам. Да и живут отец с дочерью в глухом лесу. За все свою жизнь Ханна ни разу не встречалась с другими людьми. Отец строго запретил выходить ей за помеченные деревья. Но однажды девушка не послушалась Эрика, вышла за пределы безопасной территории и познакомилась с другими людьми. На этом её и отца спокойная жизнь завершилась.-- --Качество :WEB-DLRip - HEVC 10bit - 1080p
Формат: MKV
Видео кодек: H265
Видео: 2807 Кбит/сек,1920х1080 , (16.9), 23.976 кадр/сек, HEVC (Main10@L4@Main)--Аудио Кодек:AC3
Аудио #1: MVO LostFilm @ DD5.1 AC3, 640 Kbps, 48.0 KHz, 6 ch - LostFilm - Русский
Аудио #2: MVO NewStudio @DD5.1 AC3, 384 Kbps, 48.0 KHz, 6 ch - NewStudio - Русский
Аудио #3: Original@DD5.1 E-AC3 , 640 Kbps, 48.0 KHz, 6 ch - English - Оригинал--

Доп. информация:

Звуковая дорожка сделана путем наложения чистого голоса озвучивателей на центральный канал оригинальной дорожки. Качество идентично звуковой дорожке.
--

Список эпизодов сезона


2 сезон 1 серия - Безопасность - Safe
2 сезон 2 серия - Испытание - The Trial
2 сезон 3 серия - Дорога в Медоуз - To the Meadows
2 сезон 4 серия - Добро пожаловать, Мия - Welcome Mia
2 сезон 5 серия - Как скорбеть - A Way to Grieve
2 сезон 6 серия - Теперь ты с нами - You're With Us Now
2 сезон 7 серия - Тацит - Tacitus
2 сезон 8 серия - Список - The List
--

MediaInfo 2Сезон

Общее
Уникальный идентификатор : 319303899765327178578163681260974011157 (0xF037B1B68D35E29DD9C94560C2C67315)
Полное имя : F:\Nikolai.Baranov & PIRATIYA\Ханна - Hanna\Hanna_2019_S02_HEVC- 10Bit_Н265_DD5.1_N.B_HD_10800_2хRus_Eng\Hanna_2019_S02E01_HEVC_Н265_DD5.1_N.B_HD_1080_2хRus_Eng.mkv
Формат : Matroska
Версия формата : Version 4
Размер файла : 1,54 Гбайт
Продолжительность : 49 м. 10 с.
Общий поток : 4 474 Кбит/сек
Название фильма : Hanna 20219 S02E01 @ Nikolai.Baranov & PIRATIYA
Дата кодирования : UTC 2020-07-11 12:46:04
Программа кодирования : mkvmerge v48.0.0 ('Fortress Around Your Heart') 64-bit
Библиотека кодирования : libebml v1.4.0 + libmatroska v1.6.0 / Lavf58.29.100
Видео
Идентификатор : 1
Формат : HEVC
Формат/Информация : High Efficiency Video Coding
Профиль формата : Main 10@L4@Main
Идентификатор кодека : V_MPEGH/ISO/HEVC
Продолжительность : 49 м. 10 с.
Битрейт : 2 807 Кбит/сек
Ширина : 1 920 пикселей
Высота : 1 080 пикселей
Соотношение сторон : 16:9
Режим частоты кадров : Постоянный
Частота кадров : 23,976 (24000/1001) кадра/сек
Цветовое пространство : YUV
Субдискретизация насыщенности : 4:2:0
Битовая глубина : 10 бит
Бит/(Пиксели*Кадры) : 0.056
Размер потока : 987 Мбайт (63%)
Заголовок : Hanna_2019_S02E01_HEVC_Н265_DD5.1_N.B_HD_1080_2хRus_Eng
Библиотека кодирования : x265 3.2+35-acc5d16999e2:[Windows][GCC 9.2.1][64 bit] 10bit
Настройки программы : cpuid=1111039 / frame-threads=4 / numa-pools=24 / wpp / no-pmode / no-pme / no-psnr / no-ssim / log-level=2 / input-csp=1 / input-res=1920x1080 / interlace=0 / total-frames=0 / level-idc=0 / high-tier=1 / uhd-bd=0 / ref=4 / no-allow-non-conformance / no-repeat-headers / annexb / no-aud / no-hrd / info / hash=0 / no-temporal-layers / open-gop / min-keyint=23 / keyint=250 / gop-lookahead=0 / bframes=8 / b-adapt=2 / b-pyramid / bframe-bias=0 / rc-lookahead=80 / lookahead-slices=4 / scenecut=40 / hist-scenecut=0 / radl=0 / no-splice / no-intra-refresh / ctu=64 / min-cu-size=8 / no-rect / no-amp / max-tu-size=32 / tu-inter-depth=1 / tu-intra-depth=1 / limit-tu=0 / rdoq-level=2 / dynamic-rd=0.00 / no-ssim-rd / signhide / no-tskip / nr-intra=0 / nr-inter=0 / no-constrained-intra / no-strong-intra-smoothing / max-merge=3 / limit-refs=3 / limit-modes / me=3 / subme=5 / merange=57 / temporal-mvp / no-frame-dup / no-hme / weightp / no-weightb / no-analyze-src-pics / deblock=0:0 / sao / no-sao-non-deblock / rd=4 / selective-sao=4 / no-early-skip / rskip / no-fast-intra / no-tskip-fast / no-cu-lossless / no-b-intra / no-splitrd-skip / rdpenalty=0 / psy-rd=1.30 / psy-rdoq=2.00 / no-rd-refine / no-lossless / cbqpoffs=0 / crqpoffs=0 / rc=crf / crf=19.5 / qcomp=0.60 / qpstep=4 / stats-write=0 / stats-read=0 / ipratio=1.40 / pbratio=1.30 / aq-mode=4 / aq-strength=1.10 / cutree / zone-count=0 / no-strict-cbr / qg-size=32 / no-rc-grain / qpmax=69 / qpmin=0 / no-const-vbv / sar=1 / overscan=0 / videoformat=5 / range=0 / colorprim=2 / transfer=2 / colormatrix=2 / chromaloc=0 / display-window=0 / cll=0,0 / min-luma=0 / max-luma=1023 / log2-max-poc-lsb=8 / vui-timing-info / vui-hrd-info / slices=1 / no-opt-qp-pps / no-opt-ref-list-length-pps / no-multi-pass-opt-rps / scenecut-bias=0.05 / hist-threshold=0.01 / no-opt-cu-delta-qp / no-aq-motion / no-hdr10 / no-hdr10-opt / no-dhdr10-opt / no-idr-recovery-sei / analysis-reuse-level=0 / analysis-save-reuse-level=0 / analysis-load-reuse-level=0 / scale-factor=0 / refine-intra=0 / refine-inter=0 / refine-mv=1 / refine-ctu-distortion=0 / no-limit-sao / ctu-info=0 / no-lowpass-dct / refine-analysis-type=0 / copy-pic=1 / max-ausize-factor=1.0 / no-dynamic-refine / no-single-sei / no-hevc-aq / no-svt / no-field / qp-adaptation-range=1.00 / no-scenecut-aware-qpconformance-window-offsets / right=0 / bottom=0
Язык : Russian
Default : Да
Forced : Нет
Цветовой диапазон : Limited
Аудио #1
Идентификатор : 3
Формат : AC-3
Формат/Информация : Audio Coding 3
Коммерческое название : Dolby Digital
Идентификатор кодека : A_AC3
Продолжительность : 49 м. 10 с.
Вид битрейта : Постоянный
Битрейт : 640 Кбит/сек
Каналы : 6 каналов
Channel layout : L R C LFE Ls Rs
Частота : 48,0 КГц
Частота кадров : 31,250 кадров/сек (1536 SPF)
Метод сжатия : С потерями
Размер потока : 225 Мбайт (14%)
Заголовок : MVO LostFilm @DD5.1 AC3, 640 Kbps, 48.0 KHz, 6 ch
Язык : Russian
Service kind : Complete Main
Default : Да
Forced : Нет
Аудио #2
Идентификатор : 4
Формат : AC-3
Формат/Информация : Audio Coding 3
Коммерческое название : Dolby Digital
Идентификатор кодека : A_AC3
Продолжительность : 49 м. 10 с.
Вид битрейта : Постоянный
Битрейт : 384 Кбит/сек
Каналы : 6 каналов
Channel layout : L R C LFE Ls Rs
Частота : 48,0 КГц
Частота кадров : 31,250 кадров/сек (1536 SPF)
Метод сжатия : С потерями
Размер потока : 135 Мбайт (9%)
Заголовок : MVO NewStudio @DD5.1 AC3, 384 Kbps, 48.0 KHz, 6 ch
Язык : Russian
Service kind : Complete Main
Default : Нет
Forced : Нет
Аудио #3
Идентификатор : 5
Формат : E-AC-3
Формат/Информация : Enhanced AC-3
Коммерческое название : Dolby Digital Plus
Идентификатор кодека : A_EAC3
Продолжительность : 49 м. 10 с.
Вид битрейта : Постоянный
Битрейт : 640 Кбит/сек
Каналы : 6 каналов
Channel layout : L R C LFE Ls Rs
Частота : 48,0 КГц
Частота кадров : 31,250 кадров/сек (1536 SPF)
Метод сжатия : С потерями
Размер потока : 225 Мбайт (14%)
Заголовок : Original@DD5.1 E-AC3 , 640 Kbps, 48.0 KHz, 6 ch
Язык : English
Service kind : Complete Main
Default : Нет
Forced : Нет
Текст #1
Идентификатор : 2
Формат : UTF-8
Идентификатор кодека : S_TEXT/UTF8
Идентификатор кодека/Информация : UTF-8 Plain Text
Продолжительность : 48 м. 54 с.
Битрейт : 77 бит/сек
Count of elements : 531
Размер потока : 27,8 Кбайт (0%)
Заголовок : Безопасность-Russian
Язык : Russian
Default : Да
Forced : Нет
Текст #2
Идентификатор : 6
Формат : UTF-8
Идентификатор кодека : S_TEXT/UTF8
Идентификатор кодека/Информация : UTF-8 Plain Text
Продолжительность : 48 м. 58 с.
Битрейт : 57 бит/сек
Count of elements : 757
Размер потока : 20,5 Кбайт (0%)
Заголовок : Safe-Original - SDH
Язык : English
Default : Нет
Forced : Нет
Текст #3
Идентификатор : 7
Формат : UTF-8
Идентификатор кодека : S_TEXT/UTF8
Идентификатор кодека/Информация : UTF-8 Plain Text
Продолжительность : 48 м. 58 с.
Битрейт : 56 бит/сек
Count of elements : 736
Размер потока : 20,3 Кбайт (0%)
Заголовок : Safe-Original
Язык : English
Default : Нет
Forced : Нет
Меню
00:00:00.000 : :Amazon Original
00:00:05.000 : :Hiding in the forest
00:03:35.000 : :Title Sequence
00:03:39.000 : :Transport day
00:05:09.000 : :Marissa gets questioned
00:08:22.000 : :A promotion
00:09:45.000 : :Protection
00:11:24.000 : :Remodeling Operation Ultrax
00:14:36.000 : :Stealing to survive
00:16:24.000 : :Understanding the world
00:17:55.000 : :Arrival at The Meadows
00:18:46.000 : :Blackmail
00:20:08.000 : :Vulnerable conversations
00:20:43.000 : :Bonding
00:22:38.000 : :An interview
00:24:54.000 : :Hanna keeps Clara safe
00:26:20.000 : :Terri learns about the operation
00:27:46.000 : :John observes
00:28:16.000 : :The desire for a mother
00:29:42.000 : :Correspondence
00:31:10.000 : :Clara takes a risk
00:34:57.000 : :Real or fiction
00:35:56.000 : :Making contact
00:36:38.000 : :Searching the cabin
00:38:06.000 : :Sandy vents to her mother
00:38:41.000 : :Clara gets a response
00:39:22.000 : :Trouble at the cabin
00:40:17.000 : :Arrival at the hotel
00:41:19.000 : :An offer for a new life
00:45:11.000 : :Arriving at home
00:46:09.000 : :Piano lessons
00:46:29.000 : :Hotel guests
00:47:10.000 : :End Credits
--

Скриншоты

--
2Сезон
--

Как закачать отдельный файл

1. Открыть торрент
2. Снять галки с тех файлов торрента, которые мы не хотим закачивать. Оставляем только на нужных нам файлах (файле).
3. Нажать О.К.
В клиенте utorrent
Инструкция
1) Открыть торрент

2) Снять галки с тех файлов торрента, которые мы не хотим закачивать:
* либо вручную, снимая с каждого файла галку( скрин №1)
* либо, нажав кнопку "Снять метки (Select None)", сняв сразу со всех файлов(скрин №2)
№1

№2

Оставляем только на нужных нам файлах (файле).

3)Нажать О.К
-- -- --Внимание!!! 22.07. 2020. РАЗДАЧА ОБНОВЛЕНА. ДОБАВЛЕНА -8- СЕРИЯ . Финал Сезона . ОБНОВИТЕ ТОРЕНТ ФАЙЛ. ПРИЯТНОГО ПРОСМОТРА . Поблагодарить:
ЯД: 410017546713876
--Релиз от: Nikolai.Baranov & PIRATIYA -- -- -- --Время раздачи : 24/7---
[Профиль] [ЛС]
Показать сообщения:    
Ответить на тему

Текущее время: 06-Авг 09:29

Часовой пояс: UTC + 3



Вы не можете начинать темы
Вы не можете отвечать на сообщения
Вы не можете редактировать свои сообщения
Вы не можете удалять свои сообщения
Вы не можете голосовать в опросах
Вы не можете прикреплять файлы к сообщениям
Вы не можете скачивать файлы