Великая /The Great (Сезон 1, Серия 1-10 из 10) (Мэтт Шекман, Колин Бакси) [2020, Биография, история, комедия,WEB-DLRip - HEVC 10bit 1080p] [LostFilm+Greb&Creative+NewStudio+Eng]+[Subs Rus , ENG]

Ответить на тему
Статистика раздачи
Нет
   
 
Автор Сообщение

Враг Нароода ®

Стаж: 4 года 7 месяца

Сообщений: 328

Создавать темы 11-Июл-2020 10:00

[Цитировать]

---- -- Великая /The Great - (Сезон 1, Серия 1- 10 из 10) - Полный Комплект -- --Год выпуска: 2020
Выпущено: Австралия, Великобритания, Echo Lake Entertainment, Macgowan Films, Media Rights Capital, Thruline Entertainment
Жанр: Биография, история, комедия
Продолжительность: 00:50:00
Сезон:1
Серия:1-10
Количество серий в сезоне:10--Озвучка #1: Профессиональный многоголосый - Greb&Creative - Русский
Озвучка #2: Профессиональный многоголосый - NewStudio - Русский
Озвучка #3: Профессиональный многоголосый - LostFilm- Русский
Озвучка #4: Профессиональный многоголосый -Английский - Оригинал--Субтитры (UTF-8): вшитые
#1 - Русские (включены по умолчанию)
#2 - English (SDH)
#3 - English (Original)--Внешние:
#1 - English (SDH)
#2 - English (Original)
#3 - Russian
----Релиз Без Рекламы --IMDb 8.1 --Режиссеры:
Мэтт Шекман, Колин Бакси, Берт и Берти, Бен Чессель, Гита Патель--В ролях: Элль Фэннинг, Николас Холт, Фиби Фокс, Саша Дхаван, Чарити Уэйкфилд, Гвилим Ли, Адам Годли, Дуглас Ходж, Белинда Бромилов, Байо Гбадамоси, Себастьян де Соуса, Дануся Самал, Луи Хайнс, Флоренс Кит-Роач, Джэми Деметриу, Кристоф Тек, Чарли Прайс, Ричард Пирос, Алистэр Грин, Абрахам Попула, Джеймс Смит, Стюарт Скудамор--
Юная дочь обедневшего немецкого князя София Августа Фредерика Ангальт-Цербстская выходит замуж за императора российского Петра III и становится императрицей Екатериной II. Поначалу полная надежд на чистую и светлую любовь девушка быстро разочаровывается в царственном супруге как в человеке и как в правителе и, пока тот, устроив во дворце непрекращающуюся вечеринку, развлекается банкетами, охотой, блудом и унижением подданных, молодая императрица начинает строить планы, как ей самой обустроить Россию.
-- --Качество :
-WEB-DLRip - HEVC 10bit - 1080p.
Формат: MKV
Видео кодек: H265
Видео: 4110 Кбит/сек,1920х960(2.000), 23.976 кадр/сек , HEVC (Main10@L4@Main@Main--Аудио Кодек:AC3
Аудио #1: MVO LostFilm @DD5.1 AC3, 640 Kbps, 48.0 KHz, 6 ch- LostFilm -Русский
Аудио #2: MVO Greb&Creative @DD5.1 AC3, 384 Kbps, 48.0 KHz, 6 ch- Greb&Creative -Русский
Аудио #3: MVO NewStudio @DD5.1 AC3, 384 Kbps, 48.0 KHz, 6 ch- NewStudio -Русский
Аудио #4: Original@DD5.1 E-AC3 , 640 Kbps, 48.0 KHz, 6 ch - English - Оригинал--

Доп. информация:

Звуковая дорожка сделана путем наложения чистого голоса озвучивателей на центральный канал оригинальной дорожки. Качество идентично звуковой дорожке.
--

Список эпизодов сезона


1 сезон 1 серия - Великая - The Great
1 сезон 2 серия - Борода - The Beard
1 сезон 3 серия - А вы, сударь, не Петр Великий - And You Sir, Are No Peter the Great
1 сезон 4 серия - Московский осел - Moscow Mule
1 сезон 5 серия - Война и блевота - War and Vomit
1 сезон 6 серия - Парашют - Parachute
1 сезон 7 серия - Больная надежда - A Pox on Hope
1 сезон 8 серия - Фрикадельки на даче - Meatballs at the Dacha
1 сезон 9 серия - Любовь и боль - Love Hurts
1 сезон 10 серия - Бобриный нос - The Beaver's Nose
--

MediaInfo

Общее
Уникальный идентификатор : 288209088766976465771373472093318262130 (0xD8D30D2A85B18544FDB6C842628DAD72)
Полное имя : E:\Baranov\Великая - The Great\The_Great_2020_S01_HEVC- 10Bit_Н265_DD5.1_N.B_HD_1080_3xRus_Eng\The_Great_2020_01E01_HEVC_DD5.1_N.B_HD_1080_3xRus_Eng.mkv
Формат : Matroska
Версия формата : Version 4
Размер файла : 2,25 Гбайт
Продолжительность : 52 м. 10 с.
Общий поток : 6 160 Кбит/сек
Название фильма : The Great 2020 S01E01 @ Nikolai.Baranov & PIRATIYA
Дата кодирования : UTC 2020-06-30 10:31:25
Программа кодирования : mkvmerge v48.0.0 ('Fortress Around Your Heart') 64-bit
Библиотека кодирования : libebml v1.4.0 + libmatroska v1.6.0 / Lavf58.20.100
Видео
Идентификатор : 1
Формат : HEVC
Формат/Информация : High Efficiency Video Coding
Профиль формата : Main 10@L4@Main
Идентификатор кодека : V_MPEGH/ISO/HEVC
Продолжительность : 52 м. 10 с.
Битрейт : 4 110 Кбит/сек
Ширина : 1 920 пикселей
Высота : 960 пикселей
Соотношение сторон : 2,000
Режим частоты кадров : Постоянный
Частота кадров : 23,976 (24000/1001) кадра/сек
Цветовое пространство : YUV
Субдискретизация насыщенности : 4:2:0
Битовая глубина : 10 бит
Бит/(Пиксели*Кадры) : 0.093
Размер потока : 1,50 Гбайт (67%)
Заголовок : The_Great_2020_01E01_HEVC_DD5.1_N.B_HD_1080_3xRus_Eng
Библиотека кодирования : x265 3.3+10-g08d895bb6:[Windows][GCC 10.0.1][64 bit] 10bit
Настройки программы : cpuid=1111039 / frame-threads=3 / numa-pools=12 / wpp / no-pmode / no-pme / no-psnr / no-ssim / log-level=2 / input-csp=1 / input-res=1920x960 / interlace=0 / total-frames=75066 / level-idc=0 / high-tier=1 / uhd-bd=0 / ref=5 / no-allow-non-conformance / no-repeat-headers / annexb / no-aud / no-hrd / info / hash=0 / no-temporal-layers / open-gop / min-keyint=23 / keyint=250 / gop-lookahead=0 / bframes=8 / b-adapt=2 / b-pyramid / bframe-bias=0 / rc-lookahead=80 / lookahead-slices=4 / scenecut=40 / hist-scenecut=0 / radl=0 / no-splice / no-intra-refresh / ctu=64 / min-cu-size=8 / no-rect / no-amp / max-tu-size=32 / tu-inter-depth=1 / tu-intra-depth=1 / limit-tu=0 / rdoq-level=2 / dynamic-rd=0.00 / no-ssim-rd / signhide / no-tskip / nr-intra=0 / nr-inter=0 / no-constrained-intra / no-strong-intra-smoothing / max-merge=3 / limit-refs=3 / limit-modes / me=3 / subme=5 / merange=57 / temporal-mvp / no-frame-dup / no-hme / weightp / no-weightb / no-analyze-src-pics / deblock=-3:-3 / no-sao / no-sao-non-deblock / rd=4 / selective-sao=0 / no-early-skip / rskip / no-fast-intra / no-tskip-fast / no-cu-lossless / no-b-intra / no-splitrd-skip / rdpenalty=0 / psy-rd=2.00 / psy-rdoq=1.00 / no-rd-refine / no-lossless / cbqpoffs=0 / crqpoffs=0 / rc=crf / crf=20.5 / qcomp=0.60 / qpstep=4 / stats-write=0 / stats-read=0 / ipratio=1.40 / pbratio=1.30 / aq-mode=3 / aq-strength=1.00 / cutree / zone-count=0 / no-strict-cbr / qg-size=32 / no-rc-grain / qpmax=69 / qpmin=0 / no-const-vbv / sar=0 / overscan=0 / videoformat=5 / range=0 / colorprim=2 / transfer=2 / colormatrix=2 / chromaloc=0 / display-window=0 / cll=0,0 / min-luma=0 / max-luma=1023 / log2-max-poc-lsb=8 / vui-timing-info / vui-hrd-info / slices=1 / no-opt-qp-pps / no-opt-ref-list-length-pps / no-multi-pass-opt-rps / scenecut-bias=0.05 / hist-threshold=0.01 / no-opt-cu-delta-qp / no-aq-motion / no-hdr10 / no-hdr10-opt / no-dhdr10-opt / no-idr-recovery-sei / analysis-reuse-level=0 / analysis-save-reuse-level=0 / analysis-load-reuse-level=0 / scale-factor=0 / refine-intra=0 / refine-inter=0 / refine-mv=1 / refine-ctu-distortion=0 / no-limit-sao / ctu-info=0 / no-lowpass-dct / refine-analysis-type=0 / copy-pic=1 / max-ausize-factor=1.0 / no-dynamic-refine / no-single-sei / no-hevc-aq / no-svt / no-field / qp-adaptation-range=1.00 / no-scenecut-aware-qpconformance-window-offsets / right=0 / bottom=0 / decoder-max-rate=0
Язык : Russian
Default : Да
Forced : Нет
Аудио #1
Идентификатор : 3
Формат : AC-3
Формат/Информация : Audio Coding 3
Коммерческое название : Dolby Digital
Идентификатор кодека : A_AC3
Продолжительность : 52 м. 8 с.
Вид битрейта : Постоянный
Битрейт : 640 Кбит/сек
Каналы : 6 каналов
Channel layout : L R C LFE Ls Rs
Частота : 48,0 КГц
Частота кадров : 31,250 кадров/сек (1536 SPF)
Метод сжатия : С потерями
Задержка видео : -83 мс.
Размер потока : 239 Мбайт (10%)
Заголовок : MVO LostFilm @DD5.1 AC3, 640 Kbps, 48.0 KHz, 6 ch
Язык : Russian
Service kind : Complete Main
Default : Да
Forced : Нет
Аудио #2
Идентификатор : 4
Формат : AC-3
Формат/Информация : Audio Coding 3
Коммерческое название : Dolby Digital
Идентификатор кодека : A_AC3
Продолжительность : 52 м. 10 с.
Вид битрейта : Постоянный
Битрейт : 384 Кбит/сек
Каналы : 6 каналов
Channel layout : L R C LFE Ls Rs
Частота : 48,0 КГц
Частота кадров : 31,250 кадров/сек (1536 SPF)
Метод сжатия : С потерями
Задержка видео : -83 мс.
Размер потока : 143 Мбайт (6%)
Заголовок : MVO NewStudio @DD5.1 AC3, 384 Kbps, 48.0 KHz, 6 ch
Язык : Russian
Service kind : Complete Main
Default : Нет
Forced : Нет
Аудио #3
Идентификатор : 5
Формат : AC-3
Формат/Информация : Audio Coding 3
Коммерческое название : Dolby Digital
Идентификатор кодека : A_AC3
Продолжительность : 52 м. 10 с.
Вид битрейта : Постоянный
Битрейт : 384 Кбит/сек
Каналы : 6 каналов
Channel layout : L R C LFE Ls Rs
Частота : 48,0 КГц
Частота кадров : 31,250 кадров/сек (1536 SPF)
Метод сжатия : С потерями
Задержка видео : -83 мс.
Размер потока : 143 Мбайт (6%)
Заголовок : MVO Greb&Creative @DD5.1 AC3, 384 Kbps, 48.0 KHz, 6 ch
Язык : Russian
Service kind : Complete Main
Default : Нет
Forced : Нет
Аудио #4
Идентификатор : 6
Формат : E-AC-3
Формат/Информация : Enhanced AC-3
Коммерческое название : Dolby Digital Plus
Идентификатор кодека : A_EAC3
Продолжительность : 52 м. 10 с.
Вид битрейта : Постоянный
Битрейт : 640 Кбит/сек
Каналы : 6 каналов
Channel layout : L R C LFE Ls Rs
Частота : 48,0 КГц
Частота кадров : 31,250 кадров/сек (1536 SPF)
Метод сжатия : С потерями
Задержка видео : -83 мс.
Размер потока : 239 Мбайт (10%)
Заголовок : Original@DD5.1 E-AC3 , 640 Kbps, 48.0 KHz, 6 ch
Язык : English
Service kind : Complete Main
Default : Нет
Forced : Нет
Текст #1
Идентификатор : 2
Формат : UTF-8
Идентификатор кодека : S_TEXT/UTF8
Идентификатор кодека/Информация : UTF-8 Plain Text
Продолжительность : 50 м. 2 с.
Битрейт : 113 бит/сек
Count of elements : 740
Размер потока : 41,6 Кбайт (0%)
Заголовок : Великая-Russian
Язык : Russian
Default : Да
Forced : Нет
Текст #2
Идентификатор : 7
Формат : UTF-8
Идентификатор кодека : S_TEXT/UTF8
Идентификатор кодека/Информация : UTF-8 Plain Text
Продолжительность : 51 м. 3 с.
Битрейт : 73 бит/сек
Count of elements : 942
Размер потока : 27,6 Кбайт (0%)
Заголовок : The Great-Original - SDH
Язык : English
Default : Нет
Forced : Нет
Текст #3
Идентификатор : 8
Формат : UTF-8
Идентификатор кодека : S_TEXT/UTF8
Идентификатор кодека/Информация : UTF-8 Plain Text
Продолжительность : 50 м. 53 с.
Битрейт : 66 бит/сек
Count of elements : 811
Размер потока : 24,8 Кбайт (0%)
Заголовок : The Great-Original
Язык : English
Default : Нет
Forced : Нет
Меню
00:00:00.083 : ru:Глава 01 / ru:Глава 01 / ru:Глава 01 / ru:Глава 01 / ru:Глава 01 / ru:Глава 01 / ru:Глава 01 / en:Глава 01
--

Скриншоты

-- 1-сезон.--

Как закачать отдельный файл

1. Открыть торрент
2. Снять галки с тех файлов торрента, которые мы не хотим закачивать. Оставляем только на нужных нам файлах (файле).
3. Нажать О.К.
В клиенте utorrent
Инструкция
1) Открыть торрент

2) Снять галки с тех файлов торрента, которые мы не хотим закачивать:
* либо вручную, снимая с каждого файла галку( скрин №1)
* либо, нажав кнопку "Снять метки (Select None)", сняв сразу со всех файлов(скрин №2)
№1

№2

Оставляем только на нужных нам файлах (файле).

3)Нажать О.К
-- -- --Внимание!!! 01.08. 2020. РАЗДАЧА ОБНОВЛЕНА. ДОБАВЛЕНА -8-9-10- СЕРИЯ . Финал Сезона . ОБНОВИТЕ ТОРЕНТ ФАЙЛ. ПРИЯТНОГО ПРОСМОТРА . Поблагодарить:
ЯД: 410017546713876
--Релиз от: Nikolai.Baranov & PIRATIYA -- -- -- --Время раздачи : 24/7---
[Профиль] [ЛС]
Показать сообщения:    
Ответить на тему

Текущее время: 06-Авг 09:36

Часовой пояс: UTC + 3



Вы не можете начинать темы
Вы не можете отвечать на сообщения
Вы не можете редактировать свои сообщения
Вы не можете удалять свои сообщения
Вы не можете голосовать в опросах
Вы не можете прикреплять файлы к сообщениям
Вы не можете скачивать файлы