Ужастики 3D / Goosebumps 3D (2015, Роб Леттерман, BDRip by Ash61) Half OverUnder / Вертикальная анаморфная стереопара

Ответить на тему
Статистика раздачи
Нет
   
 
Автор Сообщение

utermidai ®

Стаж: 6 года 6 месяца

Сообщений: 603

Откуда: Ukraine

Создавать темы 11-Июл-2020 16:03

[Цитировать]


Информация о фильме:
Название: Ужастики
Оригинальное название: Goosebumps
Страна: США, Австралия
Год выпуска: 3 октября 2015
Слоган: «The stories are alive»
Производство: Universal Columbia Pictures, Sony Pictures Animation, Village Roadshow Pictures, Original Film, LStar Capital, Scholastic Entertainment
Жанр: Фэнтези, Комедия, Приключения
Продолжительность: 01:43:16
Перевод: Профессиональный дублированный (Лицензия)
Режиссер: Роб Леттерман

Роли исполняли (дублировали):
Zach Дилан Миннетт (Пётр Коврижных)
Hannah Одейя Раш (Мария Борисова)
Gale Эми Райан (Любовь Германова)
Champ Райан Ли (Николай Быстров)
Lorraine Джиллиан Белл (Алена Фалалеева)
R.L.Stine / Slappy / Invisible Boy Джек Блэк (Александр Груздев)
Coach Carr Кен Марино (Пётр Иващенко)
Taylor Холстон Сейдж
Davidson Стивен Крюгер
Principal Garrison Кит А. Болден
Officer Brooks Аманда Ланд (Евгения Ваган)
Officer Stevens Тимоти С. Саймонс(Александр Носков) О фильме:
Кошмары бывают разные.
Вечно голодные оборотни, плохо воспитанные зомби, агрессивные садовые гномы и даже гигантский неуравновешенный снежный человек…
Все эти фантастические монстры и монстрики многие годы магическим образом удерживались на страницах знаменитых бестселлеров «Ужастики», пока по воле случая их не выпустили на свободу в реальный мир.-- Информация о видео-файле:
Качество: BDRip (by Ash61)
Контейнер: MKV
Формат 3D: Half OverUnder / Вертикальная анаморфная стереопара
Порядок ракурсов: левый ракурс первый
Видео кодек: x264
Аудио кодек: AC3
Видео:
AVC / 23,976 fps / 1920х1080p / 8681 Kbps
Аудио:
#1 - Русский / AC3 / 48 KHz / 5.1 ch / 640 Kbps (Дубляж - BD CEE )
#2 - Украинский / AC3 / 48 KHz / 5.1 ch / 448 Kbps (Дубляж - BD CEE)
#3 - Английский / AC3 / 48 KHz / 5.1 ch / 640 Kbps (Original - BD 3D)
Субтитры(SRT):
Вшитые (softsub):
#1 - Русские Форсированные (включены по умолчанию)
#2 - Русские Полные (iTunes)
#3 - Украинские Полные
#4 - Украинские Форсированные
#5 - Украинские Полные
#6 - English Full
#7 - English SDH
Внешние (UTF-8):
#1 - Русские Форсированные (включены по умолчанию)
#2 - Украинские Форсированные Знаете ли вы, что...

Знаете ли вы, что...

Съёмки некоторых сцен фильма проходили в Мэдисоне в штате Джорджия. Выбранный голосованием «лучшим небольшим городком Америки», Мэдисон нередко служит площадкой для киносъёмок.
Фильм снят по мотивам одноимённой серии книг для подростков в жанре «триллер/ужасы».
Псевдоним «мистер Шиверс», под которым скрывается сам Роберт Лоуренс Стайн, возможно, взят из названия серии книг «Содрогание» («Шиверс») М. Д. Спенсера, написанной по следам крайне популярной серии «Ужастики».
Mедиа инфо

M/инфо

General
Unique ID : 175348348971925614302413576522566220985 (0x83EADD14C8B77D7C8B1967C513B83CB9)
Complete name : E:\Goosebumps(2015)3D-halfOU(Ash61)\Goosebumps(2015)3D-halfOU(Ash61).mkv
Format : Matroska
Format version : Version 2
File size : 7.66 GiB
Duration : 1h 43mn
Overall bit rate : 10.6 Mbps
Movie name : Ужастики / Goosebumps (2015) в 3Д
Encoded date : UTC 2016-03-18 19:11:18
Writing application : mkvmerge v5.8.0 ('No Sleep / Pillow') built on Sep 2 2012 15:37:04
Writing library : libebml v1.2.3 + libmatroska v1.3.0
Video
ID : 1
Format : AVC
Format/Info : Advanced Video Codec
Format profile : High@L4.1
Format settings, CABAC : Yes
Format settings, ReFrames : 4 frames
Codec ID : V_MPEG4/ISO/AVC
Duration : 1h 43mn
Bit rate : 8 681 Kbps
Width : 1 920 pixels
Height : 1 080 pixels
Display aspect ratio : 16:9
Frame rate mode : Constant
Frame rate : 23.976 fps
Color space : YUV
Chroma subsampling : 4:2:0
Bit depth : 8 bits
Scan type : Progressive
Bits/(Pixel*Frame) : 0.175
Stream size : 6.26 GiB (82%)
Title : BDRip by Ash61
Writing library : x264 core 146 r2538 121396c
Encoding settings : cabac=1 / ref=4 / deblock=1:-3:-3 / analyse=0x3:0x113 / me=umh / subme=10 / psy=1 / psy_rd=1.00:0.00 / mixed_ref=1 / me_range=32 / chroma_me=1 / trellis=2 / 8x8dct=1 / cqm=0 / deadzone=21,11 / fast_pskip=1 / chroma_qp_offset=-2 / threads=12 / lookahead_threads=3 / sliced_threads=0 / nr=0 / decimate=1 / interlaced=0 / bluray_compat=0 / constrained_intra=0 / bframes=10 / b_pyramid=2 / b_adapt=2 / b_bias=0 / direct=3 / weightb=1 / open_gop=0 / weightp=2 / keyint=250 / keyint_min=23 / scenecut=40 / intra_refresh=0 / rc_lookahead=60 / rc=crf / mbtree=1 / crf=16.5 / qcomp=0.70 / qpmin=0 / qpmax=69 / qpstep=4 / vbv_maxrate=40000 / vbv_bufsize=30000 / crf_max=0.0 / nal_hrd=none / filler=0 / frame-packing=4 / ip_ratio=1.40 / aq=1:0.70
Language : English
Default : Yes
Forced : No
Audio #1
ID : 2
Format : AC-3
Format/Info : Audio Coding 3
Mode extension : CM (complete main)
Format settings, Endianness : Big
Codec ID : A_AC3
Duration : 1h 43mn
Bit rate mode : Constant
Bit rate : 640 Kbps
Channel(s) : 6 channels
Channel positions : Front: L C R, Side: L R, LFE
Sampling rate : 48.0 KHz
Bit depth : 16 bits
Compression mode : Lossy
Stream size : 473 MiB (6%)
Title : Дубляж - BD CEE
Language : Russian
Default : Yes
Forced : No
Audio #2
ID : 3
Format : AC-3
Format/Info : Audio Coding 3
Mode extension : CM (complete main)
Format settings, Endianness : Big
Codec ID : A_AC3
Duration : 1h 43mn
Bit rate mode : Constant
Bit rate : 448 Kbps
Channel(s) : 6 channels
Channel positions : Front: L C R, Side: L R, LFE
Sampling rate : 48.0 KHz
Bit depth : 16 bits
Compression mode : Lossy
Stream size : 331 MiB (4%)
Title : Дубляж - BD CEE
Language : Ukrainian
Default : No
Forced : No
Audio #3
ID : 4
Format : AC-3
Format/Info : Audio Coding 3
Mode extension : CM (complete main)
Format settings, Endianness : Big
Codec ID : A_AC3
Duration : 1h 43mn
Bit rate mode : Constant
Bit rate : 640 Kbps
Channel(s) : 6 channels
Channel positions : Front: L C R, Side: L R, LFE
Sampling rate : 48.0 KHz
Bit depth : 16 bits
Compression mode : Lossy
Stream size : 473 MiB (6%)
Title : Original - BD 3D
Language : English
Default : No
Forced : No
Text #1
ID : 5
Format : UTF-8
Codec ID : S_TEXT/UTF8
Codec ID/Info : UTF-8 Plain Text
Title : Форсированные
Language : Russian
Default : Yes
Forced : No
Text #2
ID : 6
Format : UTF-8
Codec ID : S_TEXT/UTF8
Codec ID/Info : UTF-8 Plain Text
Title : Полные
Language : Russian
Default : No
Forced : No
Text #3
ID : 7
Format : UTF-8
Codec ID : S_TEXT/UTF8
Codec ID/Info : UTF-8 Plain Text
Title : Форсированные
Language : Ukrainian
Default : No
Forced : No
Text #4
ID : 8
Format : UTF-8
Codec ID : S_TEXT/UTF8
Codec ID/Info : UTF-8 Plain Text
Title : Полные
Language : Ukrainian
Default : No
Forced : No
Text #5
ID : 9
Format : UTF-8
Codec ID : S_TEXT/UTF8
Codec ID/Info : UTF-8 Plain Text
Title : Full
Language : English
Default : No
Forced : No
Text #6
ID : 10
Format : UTF-8
Codec ID : S_TEXT/UTF8
Codec ID/Info : UTF-8 Plain Text
Title : SDH
Language : English
Default : No
Forced : No
Menu
00:00:00.000 : :1
00:08:09.697 : :2
00:11:45.955 : :3
00:17:54.029 : :4
00:17:54.030 : :5
00:21:52.853 : :6
00:27:57.842 : :7
00:32:40.289 : :8
00:32:40.290 : :9
00:38:29.849 : :10
00:44:37.007 : :11
00:52:01.451 : :12
00:58:12.947 : :13
01:03:40.608 : :14
01:09:56.317 : :15
01:16:40.761 : :16 / :17
01:22:55.220 : :18
01:31:13.091 : :19 / :20


-Время раздачи: по мере возможности
[Профиль] [ЛС]
Показать сообщения:    
Ответить на тему

Текущее время: 06-Авг 10:50

Часовой пояс: UTC + 3



Вы не можете начинать темы
Вы не можете отвечать на сообщения
Вы не можете редактировать свои сообщения
Вы не можете удалять свои сообщения
Вы не можете голосовать в опросах
Вы не можете прикреплять файлы к сообщениям
Вы не можете скачивать файлы