Флоренция и Галерея Уффици 3D в 3Д / Firenze e gfi Uffizi 3D/4K 3D (2015, Лука Виотто, BDRip) VO, Half OverUnder / Вертикальная анаморфная стереопара

Ответить на тему
Статистика раздачи
Нет
   
 
Автор Сообщение

utermidai ®

Стаж: 6 года 6 месяца

Сообщений: 603

Откуда: Ukraine

Создавать темы 12-Июл-2020 14:32

[Цитировать]


Информация о фильме:
Название: Флоренция и Галерея Уффици
Оригинальное название: Firenze e gli Uffizi
Страна: Италия
Год выпуска: 3 ноября 2015
Производство: Sky 3D, Magnitudo, Nexo Digital
Жанр: История, Живопись, Скульптура, Архитектура
Продолжительность: 01:30:58
Перевод: Профессиональный одноголосый закадровый (СВ-Дубль)
Режиссер: Лука Виотто

В фильме снимались:
Саймон Мерреллс Лоренцо "Великолепный" Медичи
Антонио Натали директор Галереи Уффици
Марко Чатти
Артуро Галанзино О фильме:
Неповторимое путешествие по городу, который когда-то был колыбелью, а сейчас является главным музеем Ренессанса.
Этот поразительный город, который может по праву называться музеем под открытым небом, стал альма-матер для легендарных творцов — Микеланджело, Брунеллески, Рафаэля, Леонардо да Винчи и Сандро Боттичелли. Фильм дарит незабываемую встречу с главной итальянской сокровищницей, в которой собраны шедевры этих легендарных мастеров, — галереей Уффици.
Невероятные съемки с применением передовых технологий 3D и 4K, захватывающими дух ракурсами, многоуровневыми панорамами и новейшими технологиями объемного изображения позволяют зрителю погрузиться в великолепие Флоренции — слушать и созерцать, чувствовать и наслаждаться самым выдающимся и знаменитым средоточием гениальных творений в истории искусств.-- Информация о видео-файле:
Качество: BDRip (by Ash61)
Контейнер: MKV
Формат 3D: Half OverUnder / Вертикальная анаморфная стереопара
Порядок ракурсов: левый ракурс первый
Видео:
AVC / 1920х1080p / 23,976 fps / 16.0 Mbps
Аудио:
#1 - Русский / AC3 / 48 KHz / 5.1 ch / 640 Kbps (VO - СВ-Дубль) [монтаж в 5.1 - Ash61]
#2 - Английский / AC3 / 48 KHz / 5.1 ch / 640 Kbps (BD 2D/3D ITA)
Субтитры (Отсутствуют):
Mедиа инфо

M/инфо

General
Unique ID : 131823626556366325170173567953512740424 (0x632C4E95FF10A9BCDC66EBCDAD0CB648)
Complete name : D:\FlorenceAndTheUffiziGallery(2015)3D-halfOU(Ash61).mkv
Format : Matroska
Format version : Version 4 / Version 2
File size : 11.0 GiB
Duration : 1h 30mn
Overall bit rate : 17.3 Mbps
Movie name : Флоренция и Галерея Уффици 3D / Firenze e gli Uffizi 3D/4K / Florence and the Uffizi Gallery 3D/4K (2015) in 3D
Encoded date : UTC 2018-02-02 21:54:13
Writing application : mkvmerge v19.0.0 ('Brave Captain') 64-bit
Writing library : libebml v1.3.5 + libmatroska v1.4.8
Video
ID : 1
Format : AVC
Format/Info : Advanced Video Codec
Format profile : High@L4.1
Format settings, CABAC : Yes
Format settings, ReFrames : 4 frames
Codec ID : V_MPEG4/ISO/AVC
Duration : 1h 30mn
Bit rate : 16.0 Mbps
Width : 1 920 pixels
Height : 1 080 pixels
Display aspect ratio : 16:9
Frame rate mode : Constant
Frame rate : 23.976 (24000/1001) fps
Color space : YUV
Chroma subsampling : 4:2:0
Bit depth : 8 bits
Scan type : Progressive
Bits/(Pixel*Frame) : 0.322
Stream size : 10.2 GiB (93%)
Title : BDRip by Ash61
Writing library : x264 core 146 r2538 121396c
Encoding settings : cabac=1 / ref=4 / deblock=1:-3:-3 / analyse=0x3:0x113 / me=umh / subme=10 / psy=1 / psy_rd=1.00:0.00 / mixed_ref=1 / me_range=32 / chroma_me=1 / trellis=2 / 8x8dct=1 / cqm=0 / deadzone=21,11 / fast_pskip=0 / chroma_qp_offset=-2 / threads=12 / lookahead_threads=3 / sliced_threads=0 / nr=0 / decimate=0 / interlaced=0 / bluray_compat=0 / constrained_intra=0 / bframes=10 / b_pyramid=2 / b_adapt=2 / b_bias=0 / direct=3 / weightb=1 / open_gop=0 / weightp=2 / keyint=250 / keyint_min=23 / scenecut=40 / intra_refresh=0 / rc=2pass / mbtree=0 / bitrate=16000 / ratetol=1.0 / qcomp=0.70 / qpmin=0 / qpmax=69 / qpstep=4 / cplxblur=20.0 / qblur=0.5 / frame-packing=4 / ip_ratio=1.40 / pb_ratio=1.30 / aq=1:0.70
Language : Italian
Default : Yes
Forced : No
Audio #1
ID : 2
Format : AC-3
Format/Info : Audio Coding 3
Mode extension : CM (complete main)
Format settings, Endianness : Big
Codec ID : A_AC3
Duration : 1h 30mn
Bit rate mode : Constant
Bit rate : 640 Kbps
Channel(s) : 6 channels
Channel positions : Front: L C R, Side: L R, LFE
Sampling rate : 48.0 KHz
Frame rate : 31.250 fps (1536 spf)
Compression mode : Lossy
Stream size : 416 MiB (4%)
Title : Одноголосый закадровый - СВ-Дубль (канал Культура) [монтаж в 5.1 - Ash61]
Language : Russian
Default : Yes
Forced : No
Audio #2
ID : 3
Format : AC-3
Format/Info : Audio Coding 3
Mode extension : CM (complete main)
Format settings, Endianness : Big
Codec ID : A_AC3
Duration : 1h 30mn
Bit rate mode : Constant
Bit rate : 640 Kbps
Channel(s) : 6 channels
Channel positions : Front: L C R, Side: L R, LFE
Sampling rate : 48.0 KHz
Frame rate : 31.250 fps (1536 spf)
Compression mode : Lossy
Stream size : 416 MiB (4%)
Language : English
Default : No
Forced : No
Menu
00:00:00.000 : :1
00:00:05.005 : :2
00:04:21.845 : :3
00:08:47.986 : :4
00:16:49.467 : :5
00:24:37.476 : :6
00:33:46.733 : :7
00:44:11.440 : :8
00:50:04.877 : :9
00:57:47.172 : :10
01:06:53.927 : :11
01:12:29.929 : :12
01:18:36.128 : :13
01:23:01.727 : :14
01:26:35.232 : :15


-Время раздачи: по мере возможности
[Профиль] [ЛС]
Показать сообщения:    
Ответить на тему

Текущее время: 06-Авг 10:52

Часовой пояс: UTC + 3



Вы не можете начинать темы
Вы не можете отвечать на сообщения
Вы не можете редактировать свои сообщения
Вы не можете удалять свои сообщения
Вы не можете голосовать в опросах
Вы не можете прикреплять файлы к сообщениям
Вы не можете скачивать файлы