Небоскреб 3D / Skyscraper 3D (2018, Роусон Маршалл Тёрбер, BDRip by Ash61) Half OverUnder / Вертикальная анаморфная стереопара

Ответить на тему
Статистика раздачи
Нет
   
 
Автор Сообщение

utermidai ®

Стаж: 6 года 6 месяца

Сообщений: 603

Откуда: Ukraine

Создавать темы 12-Июл-2020 18:24

[Цитировать]


Информация о фильме:
Название: Небоскреб
Оригинальное название: Skyscraper
Страна: США
Год выпуска: 11 июля 2018
Слоган: «The sky is the limit»
Производство: Legendary Pictures, Flynn Picture Company, Seven Bucks Productions, Universal Pictures
Жанр: Фэнтези, Комедия, Приключения
Продолжительность: 01:42:24
Перевод: Профессиональный дублированный (Лицензия)
Режиссер: Роусон Маршалл Тёрбер

Роли исполняли (дублировали):
Will Sawyer Дуэйн Джонсон (Юрий Брежнев)
Sarah Sawyer Нив Кэмпбелл (Елена Ивасишина)
Zhao Long Ji Чинь Хань (Илья Исаев)
Kores Botha Роланд Мюллер (Иван Породнов)
Mr. Pierce Ноа Тейлор (Александр Дасевич)
Inspector Wu Байрон Манн (Даниил Эльдаров)
Ben Пабло Шрайбер (Евгений Хазов)
Georgia Sawyer МакКенна Робертс (Василиса Савкина)
Henry Sawyer Ной Коттрелл (Александр Шилов)
Xia Ханна Куинливан (Варвара Чабан)
Ajani Okeke Адриан Холмс (Сергей Чихачёв)
Sergeant Han Эльфина Люк (Наталья Грачёва)
Ray Кевин О. Ранкин (Анатолий Пашнин)
Ray's Wife Греталь Монтгомери О фильме:
Самый высокий и технологичный небоскрёб в мире становится центром огненной катастрофы. Только бывший агент ФБР, а теперь эксперт по безопасности Уилл Сойер может спасти вертикальный город под небесами. Когда нельзя доверять никому, а жизнь семьи в опасности, каждая секунда на счету.-- Информация о видео-файле:
Качество: BDRip (by Ash61)
Контейнер: MKV
Формат 3D: Half OverUnder / Вертикальная анаморфная стереопара
Порядок ракурсов: левый ракурс первый
Видео:
AVC / 1920х1080p / 23,976 fps / 15.0 Mbps
Аудио:
#1 - Русский / AC3 / 48 KHz / 5.1 ch / 640 Kbps (Дубляж - BD CEE)
#2 - Украинский / AC3 / 48 KHz / 2 ch / 192 Kbps (Дубляж - iTunes)
#3 - Английский / AC3 / 48 KHz / 5.1 ch / 448 Kbps (Original)
Субтитры(SRT):
Вшитые (softsub):
#1 - Русские Форсированные (включены по умолчанию) [v.2 Ash61]
#2 - Русские Полные
#3 - Украинские Форсированные (на надписи и китайскую речь) [v.2 Ash61]
#4 - English Full
#5 - English SDH
Внешние (UTF-8):
#1 - Русские Форсированные (включены по умолчанию) [v.2 Ash61]
#2 - Русские Полные
#3 - Украинские Форсированные (на надписи и китайскую речь) [v.2 Ash61] Знаете ли вы, что...

Знаете ли вы, что...

Первый некомедийный фильм Роусона Маршалла Тёрбера.
На роль режиссёра фильма в то или иное время планировали пригласить Брэда Пейтона и Роланда Эммериха.
Mедиа инфо

M/инфо

General
Unique ID : 230615349114631192645842143496529488129 (0xAD7EE690F782F5598B8DBAAE767FA901)
Complete name : D:\Skyscraper(2018)3D-halfOU(Ash61)\Skyscraper(2018)3D-halfOU(Ash61).mkv
Format : Matroska
Format version : Version 2
File size : 11.6 GiB
Duration : 1h 42mn
Overall bit rate : 16.3 Mbps
Movie name : Небоскреб / Skyscraper (2018) in 3D
Encoded date : UTC 2018-10-27 19:49:22
Writing application : mkvmerge v5.8.0 ('No Sleep / Pillow') built on Sep 2 2012 15:37:04
Writing library : libebml v1.2.3 + libmatroska v1.3.0
Video
ID : 1
Format : AVC
Format/Info : Advanced Video Codec
Format profile : High@L4.1
Format settings, CABAC : Yes
Format settings, ReFrames : 4 frames
Codec ID : V_MPEG4/ISO/AVC
Duration : 1h 42mn
Bit rate : 15.0 Mbps
Width : 1 920 pixels
Height : 1 080 pixels
Display aspect ratio : 16:9
Frame rate mode : Constant
Frame rate : 23.976 (24000/1001) fps
Color space : YUV
Chroma subsampling : 4:2:0
Bit depth : 8 bits
Scan type : Progressive
Bits/(Pixel*Frame) : 0.302
Stream size : 10.5 GiB (90%)
Title : BDRip by Ash61
Writing library : x264 core 146 r2538 121396c
Encoding settings : cabac=1 / ref=4 / deblock=1:-3:-3 / analyse=0x3:0x113 / me=umh / subme=10 / psy=1 / psy_rd=1.00:0.00 / mixed_ref=1 / me_range=32 / chroma_me=1 / trellis=2 / 8x8dct=1 / cqm=0 / deadzone=21,11 / fast_pskip=0 / chroma_qp_offset=-2 / threads=12 / lookahead_threads=2 / sliced_threads=0 / nr=0 / decimate=0 / interlaced=0 / bluray_compat=0 / constrained_intra=0 / bframes=9 / b_pyramid=2 / b_adapt=2 / b_bias=0 / direct=3 / weightb=1 / open_gop=0 / weightp=2 / keyint=250 / keyint_min=23 / scenecut=40 / intra_refresh=0 / rc_lookahead=60 / rc=2pass / mbtree=0 / bitrate=15000 / ratetol=1.0 / qcomp=0.70 / qpmin=0 / qpmax=69 / qpstep=4 / cplxblur=20.0 / qblur=0.5 / vbv_maxrate=40000 / vbv_bufsize=30000 / nal_hrd=none / filler=0 / frame-packing=4 / ip_ratio=1.40 / pb_ratio=1.30 / aq=1:0.70
Language : English
Default : Yes
Forced : No
Audio #1
ID : 2
Format : AC-3
Format/Info : Audio Coding 3
Mode extension : CM (complete main)
Format settings, Endianness : Big
Codec ID : A_AC3
Duration : 1h 42mn
Bit rate mode : Constant
Bit rate : 640 Kbps
Channel(s) : 6 channels
Channel positions : Front: L C R, Side: L R, LFE
Sampling rate : 48.0 KHz
Frame rate : 31.250 fps (1536 spf)
Compression mode : Lossy
Stream size : 469 MiB (4%)
Title : Дубляж (BD CEE)
Language : Russian
Default : Yes
Forced : No
Audio #2
ID : 3
Format : AC-3
Format/Info : Audio Coding 3
Mode extension : CM (complete main)
Format settings, Endianness : Big
Codec ID : A_AC3
Duration : 1h 42mn
Bit rate mode : Constant
Bit rate : 192 Kbps
Channel(s) : 2 channels
Channel positions : Front: L R
Sampling rate : 48.0 KHz
Frame rate : 31.250 fps (1536 spf)
Compression mode : Lossy
Stream size : 141 MiB (1%)
Title : Дубляж (iTunes)
Language : Ukrainian
Default : No
Forced : No
Audio #3
ID : 4
Format : AC-3
Format/Info : Audio Coding 3
Mode extension : CM (complete main)
Format settings, Endianness : Big
Codec ID : A_AC3
Duration : 1h 42mn
Bit rate mode : Constant
Bit rate : 448 Kbps
Channel(s) : 6 channels
Channel positions : Front: L C R, Side: L R, LFE
Sampling rate : 48.0 KHz
Frame rate : 31.250 fps (1536 spf)
Compression mode : Lossy
Stream size : 328 MiB (3%)
Title : Original
Language : English
Default : No
Forced : No
Text #1
ID : 5
Format : UTF-8
Codec ID : S_TEXT/UTF8
Codec ID/Info : UTF-8 Plain Text
Title : Форсированные [v.2 Ash61]
Language : Russian
Default : Yes
Forced : No
Text #2
ID : 6
Format : UTF-8
Codec ID : S_TEXT/UTF8
Codec ID/Info : UTF-8 Plain Text
Title : Полные
Language : Russian
Default : No
Forced : No
Text #3
ID : 7
Format : UTF-8
Codec ID : S_TEXT/UTF8
Codec ID/Info : UTF-8 Plain Text
Title : Форсированные (на надписи и китайскую речь) [v.2 Ash61]
Language : Ukrainian
Default : No
Forced : No
Text #4
ID : 8
Format : UTF-8
Codec ID : S_TEXT/UTF8
Codec ID/Info : UTF-8 Plain Text
Title : Full (extracted from SDH [BD 3D])
Language : English
Default : No
Forced : No
Text #5
ID : 9
Format : UTF-8
Codec ID : S_TEXT/UTF8
Codec ID/Info : UTF-8 Plain Text
Title : SDH (BD 3D)
Language : English
Default : No
Forced : No
Menu
00:00:00.000 : :1
00:04:24.764 : :2
00:10:07.355 : :3
00:16:09.927 : :4
00:21:12.604 : :5
00:25:34.990 : :6
00:30:11.726 : :7
00:35:23.913 : :8
00:40:07.112 : :9
00:47:18.960 : :10
00:52:10.251 : :11
00:58:16.784 : :12
01:02:02.969 : :13
01:05:29.634 : :14
01:09:59.403 : :15
01:14:31.425 : :16
01:17:18.257 : :17
01:23:33.341 : :18
01:27:46.219 : :19
01:32:54.569 : :20


-Время раздачи: по мере возможности
[Профиль] [ЛС]
Показать сообщения:    
Ответить на тему

Текущее время: 06-Авг 10:55

Часовой пояс: UTC + 3



Вы не можете начинать темы
Вы не можете отвечать на сообщения
Вы не можете редактировать свои сообщения
Вы не можете удалять свои сообщения
Вы не можете голосовать в опросах
Вы не можете прикреплять файлы к сообщениям
Вы не можете скачивать файлы