Бойфренд из будущего / About Time (2013) HDRip

Ответить на тему
 
Автор Сообщение

Viktor59 ®

Пол: Мужской

Стаж: 8 года

Сообщений: 886

Откуда: Измаил

Создавать темы 02-Янв-2014 00:02

[Цитировать]

-Бойфренд из будущего / About Time (2013) HDRip
«Новый забавный фильм о любви. С небольшим путешествием во времени»
- Год выпуска: 2013
Производство: Великобритания | Translux, Working Title Films
Жанр: Фантастика, Драма, Комедия
Перевод: Дублированный (Лицензия)
Субтитры: Отсутствуют-Дата мировой премьеры: 27 июня 2013 (Великобритания)
Дата российской премьеры: 10 октября 2013, «UPI»
Дата выхода DVD релиза: 30 января 2014, «Двадцатый Век Фокс СНГ»
Дата выхода Blu-Ray релиза: 30 января 2014, «Двадцатый Век Фокс СНГ»-Режиссер: Ричард Кёртис-Продюсер: Тим Беван, Эрик Феллнер-Актеры: Рэйчел МакАдамс, Донал Глисон, Билл Найи, Том Холландер, Марго Робби, Лидия Уилсон, Линдси Дункан, Ричард Кордери, Джош МакГуайр, Уилл Меррик-Описание фильма:
Тиму повезло — он молодой, симпатичный, многообещающий адвокат, а еще он… умеет перемещаться во времени. И чтобы очаровать девушку своей мечты, он готов повторять первое свидание вновь и вновь. Воистину, любовь с первого взгляда не всегда выходит с первого раза…-
Продолжительность: 02:03:22
Качество видео: HDRip
Видеокодек: Xvid
Битрейт видео: ~ 1920 Кбит/сек
Размер кадра: 720 x 304 (2.368) at 23.976 fps
Аудиокодек: AC3 5.1
Битрейт аудио: 448 Кбит/сек, 48,0 КГц, 16 бит

Трейлер / Ролик

[youtube]http://www.youtube.com/v/ZNixha9J_Ak&fs=1[/youtube]

Знаете ли вы, что...

• Съёмки фильма проходили в Лондоне и Корнуолле.
• В конце фильма Рори читает книгу под названием «Мусор» (Trash). Следующий фильм Ричарда Кёртиса, в котором он является сценаристом, — это «Мусор» (2014).
• Первоначально на роль Мэри взяли Зои Дешанель, но она покинула проект из-за несогласованности расписаний съемок, и в итоге роль отошла Рэйчел МакАдамс.
• Это не первый фильм, в котором Рэйчел МакАдамс играет роль девушки влюбленной в главного героя — путешественника во времени. Подобную роль она уже исполняла в фильме «Жена путешественника во времени» (2008).

MediaInfo:

Полное имя                               : H:\About.Time.2013.D.HDRip.2100Mb.avi
Формат                                   : AVI
Формат/Информация                        : Audio Video Interleave
Профиль формата                          : OpenDML
Размер файла                             : 2,05 Гбайт
Продолжительность                        : 2 ч. 3 м.
Общий поток                              : 2381 Кбит/сек
Программа кодирования                    : VirtualDubMod 1.5.10.3 | [url=http://www.virtualdub-fr.org]www.virtualdub-fr.org[/url] || (build 2550/release)
Библиотека кодирования                   : VirtualDubMod build 2550/release
Видео
Идентификатор                            : 0
Формат                                   : MPEG-4 Visual
Профиль формата                          : Advanced Simple@L5
Параметр BVOP формата                    : 2
Параметр QPel формата                    : Нет
Параметр GMC формата                     : Без точки перехода
Параметр матрицы формата                 : Выборочная
Идентификатор кодека                     : XVID
Идентификатор кодека/Подсказка           : XviD
Продолжительность                        : 2 ч. 3 м.
Битрейт                                  : 1920 Кбит/сек
Ширина                                   : 720 пикселей
Высота                                   : 304 пикселя
Соотношение сторон                       : 2,35:1
Частота кадров                           : 23,976 кадра/сек
Цветовое пространство                    : YUV
Субдискретизация насыщенности            : 4:2:0
Битовая глубина                          : 8 бит
Тип развёртки                            : Прогрессивная
Метод сжатия                             : С потерями
Бит/(Пиксели*Кадры)                      : 0.366
Размер потока                            : 1,65 Гбайт (81%)
Библиотека кодирования                   : XviD 1.2.1 (UTC 2008-12-04)
Аудио
Идентификатор                            : 1
Формат                                   : AC-3
Формат/Информация                        : Audio Coding 3
Расширение режима                        : CM (complete main)
Параметр Endianness формата              : Big
Идентификатор кодека                     : 2000
Продолжительность                        : 2 ч. 3 м.
Вид битрейта                             : Постоянный
Битрейт                                  : 448 Кбит/сек
Каналы                                   : 6 каналов
Расположение каналов                     : Front: L C R, Side: L R, LFE
Частота                                  : 48,0 КГц
Битовая глубина                          : 16 бит
Метод сжатия                             : С потерями
Размер потока                            : 395 Мбайт (19%)
Выравнивание                             : Разделение по промежуткам
Продолжительность промежутка             : 42  мс. (1,00 видеокадр)
Время предзагрузки промежутка            : 500  мс.
Скриншоты:




[Профиль] [ЛС]

Enigmatik

Пол: Мужской

Стаж: 8 года

Сообщений: 1138

Откуда: ✔ Оттуда ✔

Создавать темы 02-Янв-2014 00:58 (спустя 56 минуты)

[Цитировать]

Viktor59, Опередил немного..)))
[Профиль] [ЛС]

messer20080

Пол: Мужской

Стаж: 8 года

Сообщений: 1927

Создавать темы 02-Янв-2014 01:25 (спустя 26 минуты)

[Цитировать]

Кто фильм смотрел. Как фильм?
[Профиль] [ЛС]

Enigmatik

Пол: Мужской

Стаж: 8 года

Сообщений: 1138

Откуда: ✔ Оттуда ✔

Создавать темы 02-Янв-2014 14:28 (спустя 13 часа)

[Цитировать]

messer20080, несмотрел... хотел выложить но неуспел..
[Профиль] [ЛС]
Показать сообщения:    
Ответить на тему

Текущее время: 04-Мар 12:50

Часовой пояс: UTC + 3



Вы не можете начинать темы
Вы не можете отвечать на сообщения
Вы не можете редактировать свои сообщения
Вы не можете удалять свои сообщения
Вы не можете голосовать в опросах
Вы не можете прикреплять файлы к сообщениям
Вы не можете скачивать файлы