Полицейская Академия 1-7 / Police Academy 1-7 (Хью Уилсон, Джерри Пэрис...)(Боевик, комедия, 1984-1994) [720p] HDTVRip

Ответить на тему
 
Автор Сообщение

баба Люда ®

Пол: Не указан

Стаж: 7 года 1 месяц

Сообщений: 20

Создавать темы 03-Янв-2014 14:43

[Цитировать]

- -Полицейская Академия | Police Academy-«What an Institution!»- Страна: США
Год выпуска: 1984
Жанр: Боевик, комедия
Описание:
Мирные жители США находятся в опасности! Мэр города принял новый закон — больше нет никаких ограничений при приеме на службу в полицию. Вес, пол, рост и слабые умственные способности никому не помешают поступить в полицейскую академию. Приемные комиссии ломятся от толстяков, ботаников и уличных хулиганов. Преподаватели академии в шоке и намерены любым способом избавиться от студентов. Но экзамены, физподготовка и гей-бары абсолютно не страшат новичков. Не такое видали!
Режиссер: Хью Уилсон
Озвучка: Стив Гуттенберг, Ким Кэтролл, Дж. У. Бейли, Бубба Смит, Донован Скотт, Джордж Гейнс, Эндрю Рубин, Дэвид Граф, Лесли Истербрук, Майкл Уинслоу
Продолжительность: 01:32:19
Перевод: Дублированный

Рейтинг R - Детям до 17 лет обязательно присутствие родителей-Язык субтитров: Russian, English
Вид субтитров: Вшитые
Видеокодек: MPEG-4 AVC/H.264
Битрейт видео: 6384 Kbps
Размер кадра: 1280x720
Качество видео: HDTVRip 720p
Аудио #1: Русский, AC3 2.0, 192 kbps |Дубляж|
Аудио #2: Русский, AC3 2.0, 192 kbps |Многоголосый закадровый, Россия|
Аудио #3: Русский, AC3 2.0, 192 kbps |Многоголосый закадровый|
Аудио #4: Русский, AC3 5.0, 384 kbps |Многоголосый закадровый|
Аудио #5: Русский, AC3 2.0, 192 kbps |Многоголосый закадровый, НТВ|
Аудио #6: Английский, AC3 2.0, 384 kbps |Оригинал|

Знаете ли вы, что...

• Единственный из всех фильмов френчайза, получивший в США кинопрокатный рейтинг R.
• Брюс Уиллис пробовался на роль кадета Махони.
• Роль кадета Махони могла также достаться Тому Хэнксу, Майклу Китону и Джаджу Рейнольду.
• Съёмки фильма уложились ровно в 40 дней.
• «Полицейская академия» стала самым успешным фильмом года в Германии (5,19 млн. проданных билетов), обойдя все остальные голливудские проекты и даже «Бесконечную историю» Вольфганга Петерсена.
• После того как комендант Лассард с кадетами отъезжают от бушующей толпы, они ударяются о грузовик с мясом, на котором написано «Maslansky`s Bologna». Это шуточная отсылка в сторону одного из продюсеров фильма Пола Маслански.
• Режиссёр Хью Уилсон имеет небольшое камео водителя, машина которого получает небольшие повреждения во время ночных уроков вождения Хайтауэра с Махони.
• Бар «Голубая устрица» в фильме на самом деле находится в Торонто и носит название «Комната Серебряного доллара» (“Silver Dollar Room”).
• Единственный из всех семи фильмов серии, где можно увидеть кадетов Лесли Барбара, Карен Томпсон и Джорджа Мартина.
• Единственный из всех фильмов френчайза, где можно увидеть жену коменданта Лассарда.
• Майкл Уинслоу (Джонс), Дэвид Граф (Тэклберри) и Джордж Гейнс (комендант Лассард) единственные актёры, которые появляются во всех семи частях «Полицейской Академии».
• Роль коменданта Эрика Лассарда была предложена Роберту Конраду, но актёр ответил отказом и впоследствии сожалел о своём решении.
• Киностудия Warner Bros. пригласила Хью Уилсона написать сценарий фильма, но он согласился только тогда, когда ему было предложено стать и режиссёром проекта.
• Трость, ставшая отличительным знаком лейтенанта Харриса на протяжении всей серии фильмов, не была запланирована в сценарии. Это был обычный предмет реквизита, принесённый на съёмочную площадку одним из участников массовки, который дал подержать его на время игравшему эту роль актёру Дж.У. Бейли.
• Во время съёмок сцены преодоления полосы препятствий, первый человек, посланный на пробу оценить стену, перелезая её, оказался на такой большой высоте, что при приземлении сломал ногу.
• Забавная сцена с кремом для обуви на мегафоне произошла от подобной проделки на съёмках одного из фильмов британского режиссёра Майкла Виннера, когда кто-то попытался так подшутить над ним. Хью Уилсон услышал эту историю от одного из участников съёмочной группы и решил вставить её в сценарий.
• Скотт Томсон (кадет Чад Коуплэнд) и Брэнт фон Хоффман (кадет Блэнкс) в ряде сцен фильма вынуждены были носить специальные парики. Это произошло из-за того, что сцены снимались не по порядку, и сначала был снят фрагмент, в котором им полностью обрили головы, а затем выяснилось, что остались эпизоды с их участием перед и во время прибытия в Академию.

Media Info

General
Unique ID : 201036439523939390212968900626543359165 (0x973E35BAA4EBE35E8F5C97EB8D5534BD)
Complete name : C:\Films\Police Academy 1-7 HDTVRip 720p\Полицейская академия [Police Academy] HDTVRip 720p.mkv
Format : Matroska
Format version : Version 2
File size : 5.11 GiB
Duration : 1h 32mn
Overall bit rate : 7 924 Kbps
Encoded date : UTC 2011-03-06 08:06:57
Writing application : mkvmerge v4.4.0 ('Die Wiederkehr') built on Oct 31 2010 21:52:48
Writing library : libebml v1.0.0 + libmatroska v1.0.0
Video
ID : 1
Format : AVC
Format/Info : Advanced Video Codec
Format profile : High@L4.1
Format settings, CABAC : Yes
Format settings, ReFrames : 8 frames
Codec ID : V_MPEG4/ISO/AVC
Duration : 1h 32mn
Bit rate : 6 384 Kbps
Width : 1 280 pixels
Height : 720 pixels
Display aspect ratio : 16:9
Frame rate : 25.000 fps
Color space : YUV
Chroma subsampling : 4:2:0
Bit depth : 8 bits
Scan type : Progressive
Bits/(Pixel*Frame) : 0.277
Stream size : 4.02 GiB (79%)
Writing library : x264 core 98 r1649 20cbe10
Encoding settings : cabac=1 / ref=8 / deblock=1:-1:-1 / analyse=0x3:0x133 / me=umh / subme=9 / psy=1 / psy_rd=1.00:0.15 / mixed_ref=1 / me_range=32 / chroma_me=1 / trellis=2 / 8x8dct=1 / cqm=1 / deadzone=21,11 / fast_pskip=0 / chroma_qp_offset=-3 / threads=18 / sliced_threads=0 / nr=0 / decimate=0 / interlaced=0 / constrained_intra=0 / bframes=4 / b_pyramid=2 / b_adapt=2 / b_bias=0 / direct=2 / weightb=1 / weightp=2 / keyint=250 / keyint_min=25 / scenecut=40 / intra_refresh=0 / rc_lookahead=60 / rc=2pass / mbtree=1 / bitrate=6384 / ratetol=1.0 / qcomp=0.60 / qpmin=10 / qpmax=51 / qpstep=4 / cplxblur=20.0 / qblur=0.5 / vbv_maxrate=50000 / vbv_bufsize=50000 / ip_ratio=1.40 / aq=1:1.00 / nal_hrd=none
Language : English
Audio #1
ID : 2
Format : AC-3
Format/Info : Audio Coding 3
Mode extension : CM (complete main)
Codec ID : A_AC3
Duration : 1h 32mn
Bit rate mode : Constant
Bit rate : 192 Kbps
Channel(s) : 2 channels
Channel positions : Front: L R
Sampling rate : 48.0 KHz
Bit depth : 16 bits
Compression mode : Lossy
Stream size : 127 MiB (2%)
Title : Dub
Language : Russian
Audio #2
ID : 3
Format : AC-3
Format/Info : Audio Coding 3
Mode extension : CM (complete main)
Codec ID : A_AC3
Duration : 1h 32mn
Bit rate mode : Constant
Bit rate : 192 Kbps
Channel(s) : 2 channels
Channel positions : Front: L R
Sampling rate : 48.0 KHz
Bit depth : 16 bits
Compression mode : Lossy
Stream size : 127 MiB (2%)
Title : MVO Россия
Language : Russian
Audio #3
ID : 4
Format : AC-3
Format/Info : Audio Coding 3
Mode extension : CM (complete main)
Codec ID : A_AC3
Duration : 1h 32mn
Bit rate mode : Constant
Bit rate : 192 Kbps
Channel(s) : 1 channel
Channel positions : Front: C
Sampling rate : 48.0 KHz
Bit depth : 16 bits
Compression mode : Lossy
Stream size : 127 MiB (2%)
Title : MVO
Language : Russian
Audio #4
ID : 5
Format : AC-3
Format/Info : Audio Coding 3
Mode extension : CM (complete main)
Codec ID : A_AC3
Duration : 1h 32mn
Bit rate mode : Constant
Bit rate : 384 Kbps
Channel(s) : 5 channels
Channel positions : Front: L C R, Side: L R
Sampling rate : 48.0 KHz
Bit depth : 16 bits
Compression mode : Lossy
Stream size : 253 MiB (5%)
Title : MVO
Language : Russian
Audio #5
ID : 6
Format : AC-3
Format/Info : Audio Coding 3
Mode extension : CM (complete main)
Codec ID : A_AC3
Duration : 1h 32mn
Bit rate mode : Constant
Bit rate : 192 Kbps
Channel(s) : 2 channels
Channel positions : Front: L R
Sampling rate : 48.0 KHz
Bit depth : 16 bits
Compression mode : Lossy
Stream size : 127 MiB (2%)
Title : DVO HTB
Language : Russian
Audio #6
ID : 7
Format : AC-3
Format/Info : Audio Coding 3
Format profile : Dolby Digital
Mode extension : CM (complete main)
Codec ID : A_AC3
Duration : 1h 32mn
Bit rate mode : Constant
Bit rate : 384 Kbps
Channel(s) : 2 channels
Channel positions : Front: L R
Sampling rate : 48.0 KHz
Bit depth : 16 bits
Compression mode : Lossy
Stream size : 253 MiB (5%)
Title : Original
Language : English
Text #1
ID : 8
Format : UTF-8
Codec ID : S_TEXT/UTF8
Codec ID/Info : UTF-8 Plain Text
Language : Russian
Text #2
ID : 9
Format : UTF-8
Codec ID : S_TEXT/UTF8
Codec ID/Info : UTF-8 Plain Text
Language : English
Скриншоты:
-Полицейская академия 2: Их первое задание | Police Academy 2: Their First Assignment-«To protect, to serve... and make you laugh. America's funniest crimebusters are back!»- Страна: США
Год выпуска: 1985
Жанр: Боевик, комедия
Описание:
Банда хулиганов творит безобразия по всему городу и опустошает карманы всех, кто находится с ними на одном тротуаре. Осторожно! Когда увальни в голубой форме решат разобраться с этими парнями, это закончится умопомрачительным смехом.
Режиссер: Джерри Пэрис
Озвучка: Стив Гуттенберг, Бубба Смит, Дэвид Граф, Майкл Уинслоу, Брюс Малер, Мэрион Рэмси, Коллин Кэмп, Ховард Хессеман, Арт Метрано, Джордж Гейнс
Продолжительность: 01:23:29
Перевод: Дублированный

Рейтинг PG-13 - Детям до 13 лет просмотр не желателен-Язык субтитров: Russian, English
Вид субтитров: Вшитые
Видеокодек: MPEG-4 AVC/H.264
Битрейт видео: 7097 Kbps
Размер кадра: 1280x720
Качество видео: HDTVRip 720p
Аудио #1: Русский, AC3 2.0, 192 kbps |Дубляж|
Аудио #2: Русский, AC3 2.0, 192 kbps |Многоголосый закадровый, Россия|
Аудио #3: Русский, AC3 5.0, 384 kbps |Многоголосый закадровый|
Аудио #4: Русский, AC3 2.0, 192 kbps |Двухголосый закадровый, НТВ|
Аудио #5: Английский, AC3 2.0, 384 kbps |Оригинал|

Знаете ли вы, что...

• Примерно на 66-ой минуте фильма в кадр на несколько секунд попадает телефонная будка, с написанным на ней нецензурным русским словом из трёх букв.

Media Info

General
Unique ID : 222781859896926524138070969124845756552 (0xA79A39BAA44A791F908967060DDBA088)
Complete name : C:\Films\Police Academy 1-7 HDTVRip 720p\Полицейская академия 2 - Их первое задание [Police Academy 2 Their First Assignment] HDTVRip 720p.mkv
Format : Matroska
Format version : Version 2
File size : 4.96 GiB
Duration : 1h 23mn
Overall bit rate : 8 507 Kbps
Encoded date : UTC 2011-03-19 12:08:18
Writing application : mkvmerge v4.5.0 ('Speed of Light') built on Feb 1 2011 02:10:32
Writing library : libebml v1.2.0 + libmatroska v1.1.0
Video
ID : 1
Format : AVC
Format/Info : Advanced Video Codec
Format profile : High@L4.1
Format settings, CABAC : Yes
Format settings, ReFrames : 8 frames
Codec ID : V_MPEG4/ISO/AVC
Duration : 1h 23mn
Bit rate : 7 097 Kbps
Width : 1 280 pixels
Height : 720 pixels
Display aspect ratio : 16:9
Frame rate : 25.000 fps
Color space : YUV
Chroma subsampling : 4:2:0
Bit depth : 8 bits
Scan type : Progressive
Bits/(Pixel*Frame) : 0.308
Stream size : 4.04 GiB (81%)
Writing library : x264 core 98 r1649 20cbe10
Encoding settings : cabac=1 / ref=8 / deblock=1:-1:-1 / analyse=0x3:0x133 / me=umh / subme=9 / psy=1 / psy_rd=1.00:0.15 / mixed_ref=1 / me_range=32 / chroma_me=1 / trellis=2 / 8x8dct=1 / cqm=1 / deadzone=21,11 / fast_pskip=0 / chroma_qp_offset=-3 / threads=18 / sliced_threads=0 / nr=0 / decimate=0 / interlaced=0 / constrained_intra=0 / bframes=4 / b_pyramid=2 / b_adapt=2 / b_bias=0 / direct=2 / weightb=1 / weightp=2 / keyint=250 / keyint_min=25 / scenecut=40 / intra_refresh=0 / rc_lookahead=60 / rc=2pass / mbtree=1 / bitrate=7097 / ratetol=1.0 / qcomp=0.60 / qpmin=10 / qpmax=51 / qpstep=4 / cplxblur=20.0 / qblur=0.5 / vbv_maxrate=50000 / vbv_bufsize=50000 / ip_ratio=1.40 / aq=1:1.00 / nal_hrd=none
Language : English
Audio #1
ID : 2
Format : AC-3
Format/Info : Audio Coding 3
Mode extension : CM (complete main)
Codec ID : A_AC3
Duration : 1h 23mn
Bit rate mode : Constant
Bit rate : 192 Kbps
Channel(s) : 2 channels
Channel positions : Front: L R
Sampling rate : 48.0 KHz
Bit depth : 16 bits
Compression mode : Lossy
Stream size : 115 MiB (2%)
Title : Дубляж
Language : Russian
Audio #2
ID : 3
Format : AC-3
Format/Info : Audio Coding 3
Mode extension : CM (complete main)
Codec ID : A_AC3
Duration : 1h 23mn
Bit rate mode : Constant
Bit rate : 192 Kbps
Channel(s) : 2 channels
Channel positions : Front: L R
Sampling rate : 48.0 KHz
Bit depth : 16 bits
Compression mode : Lossy
Stream size : 115 MiB (2%)
Title : Многоголосый, Россия
Language : Russian
Audio #3
ID : 4
Format : AC-3
Format/Info : Audio Coding 3
Mode extension : CM (complete main)
Codec ID : A_AC3
Duration : 1h 23mn
Bit rate mode : Constant
Bit rate : 384 Kbps
Channel(s) : 5 channels
Channel positions : Front: L C R, Side: L R
Sampling rate : 48.0 KHz
Bit depth : 16 bits
Compression mode : Lossy
Stream size : 229 MiB (5%)
Title : Многоголосый
Language : Russian
Audio #4
ID : 5
Format : AC-3
Format/Info : Audio Coding 3
Mode extension : CM (complete main)
Codec ID : A_AC3
Duration : 1h 23mn
Bit rate mode : Constant
Bit rate : 256 Kbps
Channel(s) : 2 channels
Channel positions : Front: L R
Sampling rate : 48.0 KHz
Bit depth : 16 bits
Compression mode : Lossy
Stream size : 153 MiB (3%)
Title : Двухголосый, НТВ
Language : Russian
Audio #5
ID : 6
Format : AC-3
Format/Info : Audio Coding 3
Format profile : Dolby Digital
Mode extension : CM (complete main)
Codec ID : A_AC3
Duration : 1h 23mn
Bit rate mode : Constant
Bit rate : 384 Kbps
Channel(s) : 2 channels
Channel positions : Front: L R
Sampling rate : 48.0 KHz
Bit depth : 16 bits
Compression mode : Lossy
Delay relative to video : 63ms
Stream size : 229 MiB (5%)
Title : Оригинал
Language : English
Text #1
ID : 7
Format : UTF-8
Codec ID : S_TEXT/UTF8
Codec ID/Info : UTF-8 Plain Text
Language : Russian
Text #2
ID : 8
Format : UTF-8
Codec ID : S_TEXT/UTF8
Codec ID/Info : UTF-8 Plain Text
Language : English
Скриншоты:
-Полицейская академия 3: Переподготовка | Police Academy 3: Back in Training-«An open-and-shut case of nonstop laughter.»- Страна: США
Год выпуска: 1986
Жанр: Боевик, комедия
Описание:
Правительство заявило, что только одна из двух полицейских школ может продолжать свою работу. Начинается жестокое состязание на выживание — ни одна из академий не желает закрываться, в дело идут все средства.
Махони, Хайтауэр, Тэклберри, Джонс, Хукс и Кэллагэн под командованием несгибаемого коменданта Лассарда, мобилизуют для спасения своей Альма Матер новую команду безнадежных рекрутов.

Режиссер: Джерри Пэрис
Озвучка: Стив Гуттенберг, Бубба Смит, Дэвид Граф, Майкл Уинслоу, Мэрион Рэмси, Лесли Истербрук, Арт Метрано, Тим Казурински, Боб Голдтуэйт, Джордж Гейнс
Продолжительность: 01:20:13
Перевод: Дублированный

Рейтинг PG - Рекомендуется присутствие родителей-Язык субтитров: English
Вид субтитров: Вшитые
Видеокодек: MPEG-4 AVC/H.264
Битрейт видео: 7401 Kbps
Размер кадра: 1280x720
Качество видео: HDTVRip 720p
Аудио #1: Русский, AC3 2.0, 192 kbps |Дубляж|
Аудио #2: Русский, AC3 2.0, 192 kbps |Многоголосый закадровый|
Аудио #3: Русский, AC3 2.0, 192 kbps |Двухголосый закадровый, НТВ|
Аудио #4: Английский, AC3 2.0, 384 kbps |Оригинал|

Media Info

General
Unique ID : 253563814085126293409896736735764392071 (0xBEC29D3E9158CB449310FBA1622BA887)
Complete name : C:\Films\Police Academy 1-7 HDTVRip 720p\Полицейская академия 3 - Переподготовка [Police Academy 3 Back in Training] HDTVRip 720p.mkv
Format : Matroska
Format version : Version 2
File size : 4.69 GiB
Duration : 1h 20mn
Overall bit rate : 8 363 Kbps
Encoded date : UTC 2011-05-15 18:45:48
Writing application : mkvmerge v4.4.0 ('Die Wiederkehr') built on Oct 31 2010 21:52:48
Writing library : libebml v1.0.0 + libmatroska v1.0.0
Video
ID : 1
Format : AVC
Format/Info : Advanced Video Codec
Format profile : High@L4.1
Format settings, CABAC : Yes
Format settings, ReFrames : 8 frames
Codec ID : V_MPEG4/ISO/AVC
Duration : 1h 20mn
Bit rate : 7 401 Kbps
Width : 1 280 pixels
Height : 720 pixels
Display aspect ratio : 16:9
Frame rate : 25.000 fps
Color space : YUV
Chroma subsampling : 4:2:0
Bit depth : 8 bits
Scan type : Progressive
Bits/(Pixel*Frame) : 0.321
Stream size : 4.06 GiB (87%)
Writing library : x264 core 98 r1649 20cbe10
Encoding settings : cabac=1 / ref=8 / deblock=1:-1:-1 / analyse=0x3:0x133 / me=umh / subme=9 / psy=1 / psy_rd=1.00:0.15 / mixed_ref=1 / me_range=32 / chroma_me=1 / trellis=2 / 8x8dct=1 / cqm=1 / deadzone=21,11 / fast_pskip=0 / chroma_qp_offset=-3 / threads=18 / sliced_threads=0 / nr=0 / decimate=0 / interlaced=0 / constrained_intra=0 / bframes=4 / b_pyramid=2 / b_adapt=2 / b_bias=0 / direct=2 / weightb=1 / weightp=2 / keyint=250 / keyint_min=25 / scenecut=40 / intra_refresh=0 / rc_lookahead=60 / rc=2pass / mbtree=1 / bitrate=7401 / ratetol=1.0 / qcomp=0.60 / qpmin=10 / qpmax=51 / qpstep=4 / cplxblur=20.0 / qblur=0.5 / vbv_maxrate=50000 / vbv_bufsize=50000 / ip_ratio=1.40 / aq=1:1.00 / nal_hrd=none
Language : English
Audio #1
ID : 2
Format : AC-3
Format/Info : Audio Coding 3
Mode extension : CM (complete main)
Codec ID : A_AC3
Duration : 1h 20mn
Bit rate mode : Constant
Bit rate : 192 Kbps
Channel(s) : 2 channels
Channel positions : Front: L R
Sampling rate : 48.0 KHz
Bit depth : 16 bits
Compression mode : Lossy
Stream size : 110 MiB (2%)
Title : Dub
Language : Russian
Audio #2
ID : 3
Format : AC-3
Format/Info : Audio Coding 3
Mode extension : CM (complete main)
Codec ID : A_AC3
Duration : 1h 20mn
Bit rate mode : Constant
Bit rate : 192 Kbps
Channel(s) : 2 channels
Channel positions : Front: L R
Sampling rate : 48.0 KHz
Bit depth : 16 bits
Compression mode : Lossy
Stream size : 110 MiB (2%)
Title : MVO
Language : Russian
Audio #3
ID : 4
Format : AC-3
Format/Info : Audio Coding 3
Mode extension : CM (complete main)
Codec ID : A_AC3
Duration : 1h 20mn
Bit rate mode : Constant
Bit rate : 192 Kbps
Channel(s) : 2 channels
Channel positions : Front: L R
Sampling rate : 48.0 KHz
Bit depth : 16 bits
Compression mode : Lossy
Stream size : 110 MiB (2%)
Title : DVO, NTV
Language : Russian
Audio #4
ID : 5
Format : AC-3
Format/Info : Audio Coding 3
Format profile : Dolby Digital
Mode extension : CM (complete main)
Codec ID : A_AC3
Duration : 1h 20mn
Bit rate mode : Constant
Bit rate : 384 Kbps
Channel(s) : 2 channels
Channel positions : Front: L R
Sampling rate : 48.0 KHz
Bit depth : 16 bits
Compression mode : Lossy
Delay relative to video : 88ms
Stream size : 220 MiB (5%)
Title : Original
Language : English
Text
ID : 6
Format : UTF-8
Codec ID : S_TEXT/UTF8
Codec ID/Info : UTF-8 Plain Text
Language : English
Скриншоты:
-Полицейская академия 4: Граждане в дозоре | Police Academy 4: Citizens on Patrol- «On land, on sea, or in the air, no place is safe from them!»- Страна: США
Год выпуска: 1987
Жанр: Боевик, комедия
Описание:
Упрямый и предприимчивый Лассард решает усилить безопасность на улице с помощью создания добровольных дружин под названием «Граждане на дежурстве». Угадайте, кто будет инструктировать обывателей? Верно, те же выпускники академии, что принимали «неуд» в своих зачетках за отличные отметки.
Когда конкурент, лейтенант Харрис, наблюдает за этими упражнениями, он решает использовать их для дискредитации Академии. Но наши герои сложили свои коэффициенты умственного развития и поднялись в воздух на бипланах и воздушных шарах: кто-то должен спасать положение!

Режиссер: Джим Дрэйк
Озвучка: Стив Гуттенберг, Бубба Смит, Майкл Уинслоу, Дэвид Граф, Тим Казурински, Шэрон Стоун, Лесли Истербрук, Мэрион Рэмси, Лэнс Кинси, Дж. У. Бейли
Продолжительность: 01:23:34
Перевод: Дублированный

Рейтинг PG - Рекомендуется присутствие родителей-Язык субтитров: English
Вид субтитров: Вшитые
Видеокодек: MPEG-4 AVC/H.264
Битрейт видео: 7089 Kbps
Размер кадра: 1280x720
Качество видео: HDTVRip 720p
Аудио #1: Русский, AC3 2.0, 192 kbps |Дубляж|
Аудио #2: Русский, AC3 2.0, 192 kbps |Многоголосый закадровый, Россия|
Аудио #3: Русский, AC3 1.0, 192 kbps |Многоголосый закадровый|
Аудио #4: Русский, AC3 2.0, 192 kbps |Двухголосый закадровый, НТВ|
Аудио #5: Английский, AC3 2.0, 384 kbps |Оригинал|

Media Info

General
Unique ID : 252937405663055130584774387868378830514 (0xBE49F8ECBAD39813935789B66D7796B2)
Complete name : C:\Films\Police Academy 1-7 HDTVRip 720p\Полицейская академия 4 - Граждане в дозоре [Police Academy 4 Citizens on Patrol] HDTVRip 720p.mkv
Format : Matroska
Format version : Version 2
File size : 4.82 GiB
Duration : 1h 23mn
Overall bit rate : 8 253 Kbps
Encoded date : UTC 2011-05-13 07:24:41
Writing application : mkvmerge v4.7.0 ('Just Like You Imagined') built on Apr 21 2011 01:13:14
Writing library : libebml v1.2.0 + libmatroska v1.1.0
Video
ID : 1
Format : AVC
Format/Info : Advanced Video Codec
Format profile : High@L4.1
Format settings, CABAC : Yes
Format settings, ReFrames : 8 frames
Codec ID : V_MPEG4/ISO/AVC
Duration : 1h 23mn
Bit rate : 7 089 Kbps
Width : 1 280 pixels
Height : 720 pixels
Display aspect ratio : 16:9
Frame rate : 25.000 fps
Color space : YUV
Chroma subsampling : 4:2:0
Bit depth : 8 bits
Scan type : Progressive
Bits/(Pixel*Frame) : 0.308
Stream size : 4.05 GiB (84%)
Writing library : x264 core 98 r1649 20cbe10
Encoding settings : cabac=1 / ref=8 / deblock=1:-1:-1 / analyse=0x3:0x113 / me=umh / subme=9 / psy=1 / psy_rd=1.00:0.15 / mixed_ref=1 / me_range=32 / chroma_me=1 / trellis=2 / 8x8dct=1 / cqm=1 / deadzone=21,11 / fast_pskip=0 / chroma_qp_offset=-3 / threads=3 / sliced_threads=0 / nr=0 / decimate=0 / interlaced=0 / constrained_intra=0 / bframes=4 / b_pyramid=2 / b_adapt=2 / b_bias=0 / direct=2 / weightb=1 / weightp=2 / keyint=250 / keyint_min=25 / scenecut=40 / intra_refresh=0 / rc_lookahead=60 / rc=2pass / mbtree=1 / bitrate=7089 / ratetol=1.0 / qcomp=0.60 / qpmin=10 / qpmax=51 / qpstep=4 / cplxblur=20.0 / qblur=0.5 / vbv_maxrate=50000 / vbv_bufsize=50000 / ip_ratio=1.40 / aq=1:1.00 / nal_hrd=none
Language : English
Audio #1
ID : 2
Format : AC-3
Format/Info : Audio Coding 3
Mode extension : CM (complete main)
Codec ID : A_AC3
Duration : 1h 23mn
Bit rate mode : Constant
Bit rate : 192 Kbps
Channel(s) : 2 channels
Channel positions : Front: L R
Sampling rate : 48.0 KHz
Bit depth : 16 bits
Compression mode : Lossy
Stream size : 115 MiB (2%)
Title : Dub
Language : Russian
Audio #2
ID : 3
Format : AC-3
Format/Info : Audio Coding 3
Mode extension : CM (complete main)
Codec ID : A_AC3
Duration : 1h 23mn
Bit rate mode : Constant
Bit rate : 192 Kbps
Channel(s) : 2 channels
Channel positions : Front: L R
Sampling rate : 48.0 KHz
Bit depth : 16 bits
Compression mode : Lossy
Stream size : 115 MiB (2%)
Title : MVO, Россия
Language : Russian
Audio #3
ID : 4
Format : AC-3
Format/Info : Audio Coding 3
Mode extension : CM (complete main)
Codec ID : A_AC3
Duration : 1h 23mn
Bit rate mode : Constant
Bit rate : 192 Kbps
Channel(s) : 1 channel
Channel positions : Front: C
Sampling rate : 48.0 KHz
Bit depth : 16 bits
Compression mode : Lossy
Stream size : 115 MiB (2%)
Title : MVO
Language : Russian
Audio #4
ID : 5
Format : AC-3
Format/Info : Audio Coding 3
Mode extension : CM (complete main)
Codec ID : A_AC3
Duration : 1h 23mn
Bit rate mode : Constant
Bit rate : 192 Kbps
Channel(s) : 2 channels
Channel positions : Front: L R
Sampling rate : 48.0 KHz
Bit depth : 16 bits
Compression mode : Lossy
Stream size : 115 MiB (2%)
Title : DVO, НТВ
Language : Russian
Audio #5
ID : 6
Format : AC-3
Format/Info : Audio Coding 3
Format profile : Dolby Digital
Mode extension : CM (complete main)
Codec ID : A_AC3
Duration : 1h 23mn
Bit rate mode : Constant
Bit rate : 384 Kbps
Channel(s) : 2 channels
Channel positions : Front: L R
Sampling rate : 48.0 KHz
Bit depth : 16 bits
Compression mode : Lossy
Stream size : 230 MiB (5%)
Title : Original
Language : English
Text
ID : 7
Format : UTF-8
Codec ID : S_TEXT/UTF8
Codec ID/Info : UTF-8 Plain Text
Language : English
Скриншоты:
-Полицейская академия 5: Место назначения - Майами Бич | Police Academy 5: Assignment: Miami Beach-«Hold everything! The cadets are dropping in on Miami Beach for an all new adventure.»- Страна: США
Год выпуска: 1988
Жанр: Боевик, комедия
Описание:
Солнце, веселье и красивые девушки. Где всему этому быть, как не в Майами Бич? На этом пятом празднике смеха наши герои летят в Майами на чествование любимого коменданта Лассарда. Но у преступников не бывает отпусков, когда отдыхают наши любимые полицейские.
Лассард похищен. И даже соблазнительные пляжные вечеринки не смогут отвлечь наших неистовых бойцов от отчаянной попытки спасения заложника.

Режиссер: Алан Майерсон
Озвучка: Бубба Смит, Дэвид Грэф, Майкл Уинслоу, Лесли Истербрук, Мэтт МакКой, Джордж Гэйнс, Рене Обержонуа, Дж. У. Бэйли, Джэнет Джоунс
Продолжительность: 01:26:01
Перевод: Дублированный

Рейтинг PG - Рекомендуется присутствие родителей-Язык субтитров: English
Вид субтитров: Вшитые
Видеокодек: MPEG-4 AVC/H.264
Битрейт видео: 6877 Kbps
Размер кадра: 1280x720
Качество видео: HDTVRip 720p
Аудио #1: Русский, AC3 2.0, 192 kbps |Дубляж|
Аудио #2: Русский, AC3 2.0, 192 kbps |Двухголосый закадровый, НТВ|
Аудио #3: Русский, AC3 2.0, 192 kbps |Многоголосый закадровый, Россия|
Аудио #4: Русский, AC3 2.0, 192 kbps |Многоголосый закадровый|
Аудио #4: Русский, AC3 2.0, 192 kbps |Одноголосый закадровый, Михалев|
Аудио #5: Английский, AC3 2.0, 384 kbps |Оригинал|

Media Info

General
Unique ID : 195940602891731173793504850202182575961 (0x9368C995DE17BCF4A71F61172FC46759)
Complete name : C:\Films\Police Academy 1-7 HDTVRip 720p\Полицейская академия 5 - Место назначения - Майами бич [Police Academy 5 Assignment Miami Beach] HDTVRip 720p.mkv
Format : Matroska
Format version : Version 2
File size : 4.94 GiB
Duration : 1h 26mn
Overall bit rate : 8 218 Kbps
Encoded date : UTC 2011-11-25 20:17:55
Writing application : mkvmerge v5.0.1 ('Es ist Sommer') built on Oct 9 2011 11:55:43
Writing library : libebml v1.2.2 + libmatroska v1.3.0
Video
ID : 1
Format : AVC
Format/Info : Advanced Video Codec
Format profile : High@L4.1
Format settings, CABAC : Yes
Format settings, ReFrames : 8 frames
Muxing mode : Header stripping
Codec ID : V_MPEG4/ISO/AVC
Duration : 1h 26mn
Bit rate : 6 877 Kbps
Width : 1 280 pixels
Height : 720 pixels
Display aspect ratio : 16:9
Frame rate : 25.000 fps
Color space : YUV
Chroma subsampling : 4:2:0
Bit depth : 8 bits
Scan type : Progressive
Bits/(Pixel*Frame) : 0.298
Stream size : 4.03 GiB (82%)
Writing library : x264 core 98 r1649 20cbe10
Encoding settings : cabac=1 / ref=8 / deblock=1:-1:-1 / analyse=0x3:0x133 / me=umh / subme=9 / psy=1 / psy_rd=1.00:0.15 / mixed_ref=1 / me_range=32 / chroma_me=1 / trellis=2 / 8x8dct=1 / cqm=1 / deadzone=21,11 / fast_pskip=0 / chroma_qp_offset=-3 / threads=18 / sliced_threads=0 / nr=0 / decimate=0 / interlaced=0 / constrained_intra=0 / bframes=4 / b_pyramid=2 / b_adapt=2 / b_bias=0 / direct=2 / weightb=1 / weightp=2 / keyint=250 / keyint_min=25 / scenecut=40 / intra_refresh=0 / rc_lookahead=60 / rc=2pass / mbtree=1 / bitrate=6877 / ratetol=1.0 / qcomp=0.60 / qpmin=10 / qpmax=51 / qpstep=4 / cplxblur=20.0 / qblur=0.5 / vbv_maxrate=50000 / vbv_bufsize=50000 / ip_ratio=1.40 / aq=1:1.00 / nal_hrd=none
Language : English
Audio #1
ID : 2
Format : AC-3
Format/Info : Audio Coding 3
Mode extension : CM (complete main)
Muxing mode : Header stripping
Codec ID : A_AC3
Duration : 1h 26mn
Bit rate mode : Constant
Bit rate : 192 Kbps
Channel(s) : 2 channels
Channel positions : Front: L R
Sampling rate : 48.0 KHz
Bit depth : 16 bits
Compression mode : Lossy
Stream size : 118 MiB (2%)
Title : дубляж
Language : Russian
Audio #2
ID : 3
Format : AC-3
Format/Info : Audio Coding 3
Mode extension : CM (complete main)
Muxing mode : Header stripping
Codec ID : A_AC3
Duration : 1h 26mn
Bit rate mode : Constant
Bit rate : 192 Kbps
Channel(s) : 2 channels
Channel positions : Front: L R
Sampling rate : 48.0 KHz
Bit depth : 16 bits
Compression mode : Lossy
Stream size : 118 MiB (2%)
Title : профессиональный (двухголосый закадровый, НТВ)
Language : Russian
Audio #3
ID : 4
Format : AC-3
Format/Info : Audio Coding 3
Mode extension : CM (complete main)
Muxing mode : Header stripping
Codec ID : A_AC3
Duration : 1h 26mn
Bit rate mode : Constant
Bit rate : 192 Kbps
Channel(s) : 2 channels
Channel positions : Front: L R
Sampling rate : 48.0 KHz
Bit depth : 16 bits
Compression mode : Lossy
Stream size : 118 MiB (2%)
Title : профессиональный (многоголосый закадровый, т/к Россия)
Language : Russian
Audio #4
ID : 5
Format : AC-3
Format/Info : Audio Coding 3
Mode extension : CM (complete main)
Muxing mode : Header stripping
Codec ID : A_AC3
Duration : 1h 26mn
Bit rate mode : Constant
Bit rate : 192 Kbps
Channel(s) : 2 channels
Channel positions : Front: L R
Sampling rate : 48.0 KHz
Bit depth : 16 bits
Compression mode : Lossy
Stream size : 118 MiB (2%)
Title : профессиональный (многоголосый закадровый)
Language : Russian
Audio #5
ID : 6
Format : AC-3
Format/Info : Audio Coding 3
Mode extension : CM (complete main)
Muxing mode : Header stripping
Codec ID : A_AC3
Duration : 1h 26mn
Bit rate mode : Constant
Bit rate : 192 Kbps
Channel(s) : 2 channels
Channel positions : Front: L R
Sampling rate : 48.0 KHz
Bit depth : 16 bits
Compression mode : Lossy
Stream size : 118 MiB (2%)
Title : авторский (Михалев)
Language : Russian
Audio #6
ID : 7
Format : AC-3
Format/Info : Audio Coding 3
Format profile : Dolby Digital
Mode extension : CM (complete main)
Muxing mode : Header stripping
Codec ID : A_AC3
Duration : 1h 26mn
Bit rate mode : Constant
Bit rate : 384 Kbps
Channel(s) : 2 channels
Channel positions : Front: L R
Sampling rate : 48.0 KHz
Bit depth : 16 bits
Compression mode : Lossy
Delay relative to video : 56ms
Stream size : 236 MiB (5%)
Title : Original
Language : English
Text
ID : 8
Format : UTF-8
Codec ID : S_TEXT/UTF8
Codec ID/Info : UTF-8 Plain Text
Language : English
Скриншоты:
-Полицейская академия 6: Город в осаде | Police Academy 6: City Under Siege-«The Grads are going undercover in the city to unmask the mastermind of crime.»- Страна: США
Год выпуска: 1989
Жанр: Боевик, комедия
Описание:
Вспышка криминальной активности под кодовым названием «Операция Хаос» может потребовать занавеса для ничего не подозревающего города. Лучшие полицейские специалисты из знаменитой Полицейской Академии взялись за дело.
Режиссер: Питер Бонерз
Озвучка: Бубба Смит, Лесли Истербрук, Майкл Уинслоу, Кеннет Марс, Мэрион Рэмси, Дэвид Грэф, Лэнс Кинси
Продолжительность: 01:20:21
Перевод: Дублированный

Рейтинг PG - Рекомендуется присутствие родителей-Язык субтитров: English
Вид субтитров: Вшитые
Видеокодек: MPEG-4 AVC/H.264
Битрейт видео: 7387 Kbps
Размер кадра: 1280x720
Качество видео: HDTVRip 720p
Аудио #1: Русский, AC3 2.0, 192 kbps |Дубляж|
Аудио #2: Русский, AC3 2.0, 192 kbps |Двухголосый закадровый, НТВ|
Аудио #3: Русский, AC3 2.0, 256 kbps |Многоголосый закадровый|
Аудио #4: Русский, AC3 2.0, 256 kbps |Одноголосый закадровый, Гаврилов|
Аудио #5: Английский, AC3 2.0, 384 kbps |Оригинал|

Media Info

General
Unique ID : 199881764944565207693296882540619142339 (0x965FD3E08061BE06B9ECF768FFB294C3)
Complete name : C:\Films\Police Academy 1-7 HDTVRip 720p\Полицейская академия 6 - Город в осаде [Police Academy 6 City Under Siege] HDTVRip 720p.mkv
Format : Matroska
Format version : Version 2
File size : 4.90 GiB
Duration : 1h 20mn
Overall bit rate : 8 726 Kbps
Encoded date : UTC 2011-11-25 20:27:42
Writing application : mkvmerge v5.0.1 ('Es ist Sommer') built on Oct 9 2011 11:55:43
Writing library : libebml v1.2.2 + libmatroska v1.3.0
Video
ID : 1
Format : AVC
Format/Info : Advanced Video Codec
Format profile : High@L4.1
Format settings, CABAC : Yes
Format settings, ReFrames : 8 frames
Muxing mode : Header stripping
Codec ID : V_MPEG4/ISO/AVC
Duration : 1h 20mn
Bit rate : 7 387 Kbps
Width : 1 280 pixels
Height : 720 pixels
Display aspect ratio : 16:9
Frame rate : 25.000 fps
Color space : YUV
Chroma subsampling : 4:2:0
Bit depth : 8 bits
Scan type : Progressive
Bits/(Pixel*Frame) : 0.321
Stream size : 4.05 GiB (83%)
Writing library : x264 core 98 r1649 20cbe10
Encoding settings : cabac=1 / ref=8 / deblock=1:-1:-1 / analyse=0x3:0x133 / me=umh / subme=9 / psy=1 / psy_rd=1.00:0.15 / mixed_ref=1 / me_range=32 / chroma_me=1 / trellis=2 / 8x8dct=1 / cqm=1 / deadzone=21,11 / fast_pskip=0 / chroma_qp_offset=-3 / threads=18 / sliced_threads=0 / nr=0 / decimate=0 / interlaced=0 / constrained_intra=0 / bframes=4 / b_pyramid=2 / b_adapt=2 / b_bias=0 / direct=2 / weightb=1 / weightp=2 / keyint=250 / keyint_min=25 / scenecut=40 / intra_refresh=0 / rc_lookahead=60 / rc=2pass / mbtree=1 / bitrate=7387 / ratetol=1.0 / qcomp=0.60 / qpmin=10 / qpmax=51 / qpstep=4 / cplxblur=20.0 / qblur=0.5 / vbv_maxrate=50000 / vbv_bufsize=50000 / ip_ratio=1.40 / aq=1:1.00 / nal_hrd=none
Language : English
Audio #1
ID : 2
Format : AC-3
Format/Info : Audio Coding 3
Mode extension : CM (complete main)
Muxing mode : Header stripping
Codec ID : A_AC3
Duration : 1h 20mn
Bit rate mode : Constant
Bit rate : 256 Kbps
Channel(s) : 2 channels
Channel positions : Front: L R
Sampling rate : 48.0 KHz
Bit depth : 16 bits
Compression mode : Lossy
Stream size : 147 MiB (3%)
Title : дубляж
Language : Russian
Audio #2
ID : 3
Format : AC-3
Format/Info : Audio Coding 3
Mode extension : CM (complete main)
Muxing mode : Header stripping
Codec ID : A_AC3
Duration : 1h 20mn
Bit rate mode : Constant
Bit rate : 192 Kbps
Channel(s) : 2 channels
Channel positions : Front: L R
Sampling rate : 48.0 KHz
Bit depth : 16 bits
Compression mode : Lossy
Stream size : 110 MiB (2%)
Title : профессиональный (двухголосый закадровый, НТВ)
Language : Russian
Audio #3
ID : 4
Format : AC-3
Format/Info : Audio Coding 3
Mode extension : CM (complete main)
Muxing mode : Header stripping
Codec ID : A_AC3
Duration : 1h 20mn
Bit rate mode : Constant
Bit rate : 256 Kbps
Channel(s) : 2 channels
Channel positions : Front: L R
Sampling rate : 48.0 KHz
Bit depth : 16 bits
Compression mode : Lossy
Stream size : 147 MiB (3%)
Title : профессиональный (многоголосый закадровый
Language : Russian
Audio #4
ID : 5
Format : AC-3
Format/Info : Audio Coding 3
Mode extension : CM (complete main)
Muxing mode : Header stripping
Codec ID : A_AC3
Duration : 1h 20mn
Bit rate mode : Constant
Bit rate : 256 Kbps
Channel(s) : 2 channels
Channel positions : Front: L R
Sampling rate : 48.0 KHz
Bit depth : 16 bits
Compression mode : Lossy
Stream size : 147 MiB (3%)
Title : авторский (Гаврилов)
Language : Russian
Audio #5
ID : 6
Format : AC-3
Format/Info : Audio Coding 3
Format profile : Dolby Digital
Mode extension : CM (complete main)
Muxing mode : Header stripping
Codec ID : A_AC3
Duration : 1h 20mn
Bit rate mode : Constant
Bit rate : 384 Kbps
Channel(s) : 2 channels
Channel positions : Front: L R
Sampling rate : 48.0 KHz
Bit depth : 16 bits
Compression mode : Lossy
Delay relative to video : 88ms
Stream size : 221 MiB (4%)
Title : Original
Language : English
Text
ID : 7
Format : UTF-8
Codec ID : S_TEXT/UTF8
Codec ID/Info : UTF-8 Plain Text
Language : English
Скриншоты:
-Полицейская академия 7: Миссия в Москве | Police Academy: Mission to Moscow-«Just when we thought the Cold War was over, leave it to these guys to heat it up again.»- Страна: США
Год выпуска: 1994
Жанр: Боевик, комедия
Описание:
Полицейская академия в Москве! Русский балет. Русская водка. И русская мафия. Самая опасная операция в жизни полицейских академиков! Смогут ли они вернуться живыми?..
Режиссер: Алан Меттер
Озвучка: Дэвид Грэф, Майкл Уинслоу, Лесли Истербрук, Мэтт МакКой, Джордж Гэйнс, Рене Обержонуа, Дж. У. Бэйли, Джэнет Джоунс
Продолжительность: 01:20:21
Перевод: Дублированный

Рейтинг PG - Рекомендуется присутствие родителей-Язык субтитров: Russian, English
Вид субтитров: Вшитые
Видеокодек: MPEG-4 AVC/H.264
Битрейт видео: 7387 Kbps
Размер кадра: 1280x720
Качество видео: HDTVRip 720p
Аудио #1: Русский, AC3 2.0, 192 kbps |Двухголосый закадровый, НТВ|
Аудио #2: Русский, AC3 2.0, 192 kbps |Многоголосый закадровый|
Аудио #3: Английский, AC3 2.0, 384 kbps |Оригинал|

Знаете ли вы, что...

• В качестве дачи главаря русской мафии Константина Канали фигурировал клуб в коттеджном поселке «Жуковка-2» (в период съемки - правительственный дачный поселок).

Media Info

General
Unique ID : 181064591700294042910384456926527663229 (0x8837C59B650913BFB7934AA83AD6AC7D)
Complete name : C:\Films\Police Academy 1-7 HDTVRip 720p\Полицейская академия 7 - Миссия в Москве [Police Academy Mission to Moscow] HDTVRip 720p.mkv
Format : Matroska
Format version : Version 2
File size : 4.58 GiB
Duration : 1h 19mn
Overall bit rate : 8 271 Kbps
Encoded date : UTC 2011-05-10 22:53:52
Writing application : mkvmerge v4.7.0 ('Just Like You Imagined') built on Apr 21 2011 01:13:14
Writing library : libebml v1.2.0 + libmatroska v1.1.0
Video
ID : 1
Format : AVC
Format/Info : Advanced Video Codec
Format profile : High@L4.1
Format settings, CABAC : Yes
Format settings, ReFrames : 8 frames
Codec ID : V_MPEG4/ISO/AVC
Duration : 1h 19mn
Bit rate : 7 504 Kbps
Width : 1 280 pixels
Height : 720 pixels
Display aspect ratio : 16:9
Frame rate : 25.000 fps
Color space : YUV
Chroma subsampling : 4:2:0
Bit depth : 8 bits
Scan type : Progressive
Bits/(Pixel*Frame) : 0.326
Stream size : 4.06 GiB (89%)
Writing library : x264 core 98 r1649 20cbe10
Encoding settings : cabac=1 / ref=8 / deblock=1:-1:-1 / analyse=0x3:0x133 / me=umh / subme=9 / psy=1 / psy_rd=1.00:0.15 / mixed_ref=1 / me_range=32 / chroma_me=1 / trellis=2 / 8x8dct=1 / cqm=1 / deadzone=21,11 / fast_pskip=0 / chroma_qp_offset=-3 / threads=18 / sliced_threads=0 / nr=0 / decimate=0 / interlaced=0 / constrained_intra=0 / bframes=4 / b_pyramid=2 / b_adapt=2 / b_bias=0 / direct=2 / weightb=1 / weightp=2 / keyint=250 / keyint_min=25 / scenecut=40 / intra_refresh=0 / rc_lookahead=60 / rc=2pass / mbtree=1 / bitrate=7504 / ratetol=1.0 / qcomp=0.60 / qpmin=10 / qpmax=51 / qpstep=4 / cplxblur=20.0 / qblur=0.5 / vbv_maxrate=50000 / vbv_bufsize=50000 / ip_ratio=1.40 / aq=1:1.00 / nal_hrd=none
Language : English
Audio #1
ID : 2
Format : AC-3
Format/Info : Audio Coding 3
Mode extension : CM (complete main)
Codec ID : A_AC3
Duration : 1h 19mn
Bit rate mode : Constant
Bit rate : 192 Kbps
Channel(s) : 2 channels
Channel positions : Front: L R
Sampling rate : 48.0 KHz
Bit depth : 16 bits
Compression mode : Lossy
Stream size : 109 MiB (2%)
Title : DVO, NTV
Language : Russian
Audio #2
ID : 3
Format : AC-3
Format/Info : Audio Coding 3
Mode extension : CM (complete main)
Codec ID : A_AC3
Duration : 1h 19mn
Bit rate mode : Constant
Bit rate : 192 Kbps
Channel(s) : 2 channels
Channel positions : Front: L R
Sampling rate : 48.0 KHz
Bit depth : 16 bits
Compression mode : Lossy
Stream size : 109 MiB (2%)
Title : MVO
Language : Russian
Audio #3
ID : 4
Format : AC-3
Format/Info : Audio Coding 3
Format profile : Dolby Digital
Mode extension : CM (complete main)
Codec ID : A_AC3
Duration : 1h 19mn
Bit rate mode : Constant
Bit rate : 384 Kbps
Channel(s) : 2 channels
Channel positions : Front: L R
Sampling rate : 48.0 KHz
Bit depth : 16 bits
Compression mode : Lossy
Delay relative to video : 43ms
Stream size : 218 MiB (5%)
Title : Original
Language : English
Text #1
ID : 5
Format : UTF-8
Codec ID : S_TEXT/UTF8
Codec ID/Info : UTF-8 Plain Text
Language : Russian
Text #2
ID : 6
Format : UTF-8
Codec ID : S_TEXT/UTF8
Codec ID/Info : UTF-8 Plain Text
Language : English
Скриншоты:
Время раздачи: 24/7
[Профиль] [ЛС]
Показать сообщения:    
Ответить на тему

Текущее время: 25-Фев 19:16

Часовой пояс: UTC + 3



Вы не можете начинать темы
Вы не можете отвечать на сообщения
Вы не можете редактировать свои сообщения
Вы не можете удалять свои сообщения
Вы не можете голосовать в опросах
Вы не можете прикреплять файлы к сообщениям
Вы не можете скачивать файлы