Проклятая / Cursed (Сезон 1 , Серия 1-10 из 10) (Джон Ист, Зетна Фуэнтес) [2020, Фэнтези, драма, приключения, экранизацияа,WEB-DLRip - HEVC 10bit - 1080p] [LostFilm+Пифагор+NewStudio+ Eng]+[Subs Rus , ENG]

Ответить на тему
Статистика раздачи
Нет
   
 
Автор Сообщение

Враг Нароода ®

Стаж: 4 года 7 месяца

Сообщений: 330

Создавать темы 29-Июл-2020 19:44

[Цитировать]

-- Проклятая / Cursed (Сезон 1 , Серия 1-10 из 10) - Полный Комплект -- --Год выпуска: 2020
Выпущено: США , Netflix
Жанр: Фэнтези, драма, приключения, экранизация
Продолжительность:00:55:00
Сезон:1
Серия:1-10
Количество серий в сезоне: 10--Озвучка #1:Дублированный - Пифагор - Русский
Озвучка 2: Профессиональный многоголосый- LostFilm - Русский
Озвучка 3: Профессиональный многоголосый- NewStudio - Русский
Озвучка #4: Профессиональный многоголосый -Английский - Оригинал--Субтитры (UTF-8): вшитые
#1 - Русские - Russian (включены по умолчанию)
#2 - Русские- Russian (Forced)
#3- Английские - English (SDH)
#4- Английские - English (Original)--Внешние:
#1- Английские - English (SDH)
#2- Английские - English (Original)
#3 - Русские- Russian (Forced)
#4 - Русские- Russian
--Релиз Без Рекламы --MDB 5.2 --Режиссеры:
Джон Ист, Зетна Фуэнтес, Дэниэл Неттхейм, Сара О’Горман --В ролях: Кэтрин Лэнгфорд, Девон Террелл, Густаф Скарсгард, Питер Муллан, Лили Ньюмарк, Шалом Брюн-Фрэнклин, Дэниэл Шарман, Себастьян Арместо, Билли Дженкинс, Зак Холлэнд, Ники Виккери, Катрин Уокер-- После смерти матери Ниму знакомится с молодым наёмником Артуром, занятым поисками загадочного Мерлина, чтобы передать старцу древний меч. Во время странствий с Артуром Ниму превращается в символ храбрости и сопротивления и помогает организовать восстание против красных паладинов и их короля Утера.-- --Качество :WEB-DLRip - HEVC 10bit - 1080p
Формат: MKV
Видео кодек: H265
Видео: 5094 Кбит/сек,,1920х960(2.000),в 25.000кадр/сек,HEVC (Main10@L4@Main)--Аудио Кодек:Аудио Кодек:AC3
Аудио #1: Dub Пифагор @DD5.1 E-AC3 , 640 Kbps, 48.0 KHz, 6 ch - Dub
Пифагор- Русский

Аудио #2: MVO LostFilm @ DD5.1 AC3, 640 Kbps, 48.0 KHz, 6 ch - LostFilm - Русский
Аудио #3: MVO NewStudio @DD5.1 AC3, 640 Kbps, 48.0 KHz, 6 ch - NewStudio - Русский
Аудио #4: Original@DD5.1 E-AC3 ,768 Kbps, 48.0 KHz, 6 ch - English - Оригинал-

Доп. информация:

Звуковая дорожка сделана путем наложения чистого голоса озвучивателей на центральный канал оригинальной дорожки. Качество идентично звуковой дорожке.
--

Список эпизодов сезона


1 сезон 1 серия - Нимуэ - Nimue
1 сезон 2 серия - Проклятая - Cursed
1 сезон 3 серия - Одна - Alone
1 сезон 4 серия - Красное озеро - The Red Lake
1 сезон 5 серия - Объединение - The Joining
1 сезон 6 серия - Феста и Морей - Festa and Moreii
1 сезон 7 серия - Принеси нам хорошего эля - Bring Us in Good Ale
1 сезон 8 серия - Королева Фейри - The Fey Queen
1 сезон 9 серия - Яды - Poisons
1 сезон 10 серия - Жертва - The Sacrifice
--

MediaInfo

Общее
Уникальный идентификатор : 254039221109824095193115121541861724626 (0xBF1E2C9ED246558458B282B9C06DD1D2)
Полное имя : E:\Baranov\Проклятая - Cursed\Cursed_S01_2020_HEVC- 10Bit_Н265_DD5.1_N.B_HD_1080_DUB_ 3x_Rus_Eng\Cursed_S01E01_2020_HEVC_Н265_DD5.1_N.B_HD_1080_DUB_ 3x_Rus_Eng.mkv
Формат : Matroska
Версия формата : Version 4
Размер файла : 2,92 Гбайт
Продолжительность : 53 м. 43 с.
Общий поток : 7 784 Кбит/сек
Название фильма : Cursed S01E01 2020 @ Nikolai.Baranov & PIRATIYA
Дата кодирования : UTC 2020-07-29 12:13:11
Программа кодирования : mkvmerge v48.0.0 ('Fortress Around Your Heart') 64-bit
Библиотека кодирования : libebml v1.4.0 + libmatroska v1.6.0 / Lavf58.29.100
Видео
Идентификатор : 1
Формат : HEVC
Формат/Информация : High Efficiency Video Coding
Профиль формата : Main 10@L4@Main
Идентификатор кодека : V_MPEGH/ISO/HEVC
Продолжительность : 53 м. 42 с.
Битрейт : 5 094 Кбит/сек
Ширина : 1 920 пикселей
Высота : 960 пикселей
Соотношение сторон : 2,000
Режим частоты кадров : Постоянный
Частота кадров : 25,000 кадров/сек
Цветовое пространство : YUV
Субдискретизация насыщенности : 4:2:0
Битовая глубина : 10 бит
Бит/(Пиксели*Кадры) : 0.111
Размер потока : 1,91 Гбайт (65%)
Заголовок : Cursed_S01E01_2020_HEVC_Н265_DD5.1_N.B_HD_1080_DUB_ 3x_Rus_Eng
Библиотека кодирования : x265 3.2+35-acc5d16999e2:[Windows][GCC 9.2.1][64 bit] 10bit
Настройки программы : cpuid=1111039 / frame-threads=4 / numa-pools=24 / wpp / no-pmode / no-pme / no-psnr / no-ssim / log-level=2 / input-csp=1 / input-res=1920x960 / interlace=0 / total-frames=0 / level-idc=0 / high-tier=1 / uhd-bd=0 / ref=4 / no-allow-non-conformance / no-repeat-headers / annexb / no-aud / no-hrd / info / hash=0 / no-temporal-layers / open-gop / min-keyint=25 / keyint=250 / gop-lookahead=0 / bframes=8 / b-adapt=2 / b-pyramid / bframe-bias=0 / rc-lookahead=80 / lookahead-slices=4 / scenecut=40 / hist-scenecut=0 / radl=0 / no-splice / no-intra-refresh / ctu=64 / min-cu-size=8 / no-rect / no-amp / max-tu-size=32 / tu-inter-depth=1 / tu-intra-depth=1 / limit-tu=0 / rdoq-level=2 / dynamic-rd=0.00 / no-ssim-rd / signhide / no-tskip / nr-intra=0 / nr-inter=0 / no-constrained-intra / no-strong-intra-smoothing / max-merge=3 / limit-refs=3 / limit-modes / me=3 / subme=5 / merange=57 / temporal-mvp / no-frame-dup / no-hme / weightp / no-weightb / no-analyze-src-pics / deblock=0:0 / sao / no-sao-non-deblock / rd=4 / selective-sao=4 / no-early-skip / rskip / no-fast-intra / no-tskip-fast / no-cu-lossless / no-b-intra / no-splitrd-skip / rdpenalty=0 / psy-rd=1.30 / psy-rdoq=2.00 / no-rd-refine / no-lossless / cbqpoffs=0 / crqpoffs=0 / rc=crf / crf=20.0 / qcomp=0.60 / qpstep=4 / stats-write=0 / stats-read=0 / ipratio=1.40 / pbratio=1.30 / aq-mode=4 / aq-strength=1.10 / cutree / zone-count=0 / no-strict-cbr / qg-size=32 / no-rc-grain / qpmax=69 / qpmin=0 / no-const-vbv / sar=1 / overscan=0 / videoformat=5 / range=0 / colorprim=2 / transfer=2 / colormatrix=2 / chromaloc=0 / display-window=0 / cll=0,0 / min-luma=0 / max-luma=1023 / log2-max-poc-lsb=8 / vui-timing-info / vui-hrd-info / slices=1 / no-opt-qp-pps / no-opt-ref-list-length-pps / no-multi-pass-opt-rps / scenecut-bias=0.05 / hist-threshold=0.01 / no-opt-cu-delta-qp / no-aq-motion / no-hdr10 / no-hdr10-opt / no-dhdr10-opt / no-idr-recovery-sei / analysis-reuse-level=0 / analysis-save-reuse-level=0 / analysis-load-reuse-level=0 / scale-factor=0 / refine-intra=0 / refine-inter=0 / refine-mv=1 / refine-ctu-distortion=0 / no-limit-sao / ctu-info=0 / no-lowpass-dct / refine-analysis-type=0 / copy-pic=1 / max-ausize-factor=1.0 / no-dynamic-refine / no-single-sei / no-hevc-aq / no-svt / no-field / qp-adaptation-range=1.00 / no-scenecut-aware-qpconformance-window-offsets / right=0 / bottom=0
Язык : Russian
Default : Да
Forced : Нет
Цветовой диапазон : Limited
Аудио #1
Идентификатор : 4
Формат : E-AC-3
Формат/Информация : Enhanced AC-3
Коммерческое название : Dolby Digital Plus
Идентификатор кодека : A_EAC3
Продолжительность : 53 м. 42 с.
Вид битрейта : Постоянный
Битрейт : 640 Кбит/сек
Каналы : 6 каналов
Channel layout : L R C LFE Ls Rs
Частота : 48,0 КГц
Частота кадров : 31,250 кадров/сек (1536 SPF)
Метод сжатия : С потерями
Размер потока : 246 Мбайт (8%)
Заголовок : Dub Rus Пифагор @DD5.1 E-AC3 , 640 Kbps, 48.0 KHz, 6 ch
Язык : Russian
Service kind : Complete Main
Default : Да
Forced : Нет
Аудио #2
Идентификатор : 5
Формат : AC-3
Формат/Информация : Audio Coding 3
Коммерческое название : Dolby Digital
Идентификатор кодека : A_AC3
Продолжительность : 53 м. 43 с.
Вид битрейта : Постоянный
Битрейт : 640 Кбит/сек
Каналы : 6 каналов
Channel layout : L R C LFE Ls Rs
Частота : 48,0 КГц
Частота кадров : 31,250 кадров/сек (1536 SPF)
Метод сжатия : С потерями
Размер потока : 246 Мбайт (8%)
Заголовок : MVO LostFilm @DD5.1 AC3, 640 Kbps, 48.0 KHz, 6 ch
Язык : Russian
Service kind : Complete Main
Default : Нет
Forced : Нет
Аудио #3
Идентификатор : 6
Формат : AC-3
Формат/Информация : Audio Coding 3
Коммерческое название : Dolby Digital
Идентификатор кодека : A_AC3
Продолжительность : 53 м. 42 с.
Вид битрейта : Постоянный
Битрейт : 640 Кбит/сек
Каналы : 6 каналов
Channel layout : L R C LFE Ls Rs
Частота : 48,0 КГц
Частота кадров : 31,250 кадров/сек (1536 SPF)
Метод сжатия : С потерями
Размер потока : 246 Мбайт (8%)
Заголовок : MVO NewStudio @DD5.1 AC3, 640 Kbps, 48.0 KHz, 6 ch
Язык : Russian
Service kind : Complete Main
Default : Нет
Forced : Нет
Аудио #4
Идентификатор : 7
Формат : E-AC-3 JOC
Формат/Информация : Enhanced AC-3 with Joint Object Coding
Коммерческое название : Dolby Digital Plus with Dolby Atmos
Идентификатор кодека : A_EAC3
Продолжительность : 53 м. 42 с.
Вид битрейта : Постоянный
Битрейт : 768 Кбит/сек
Каналы : 6 каналов
Channel layout : L R C LFE Ls Rs
Частота : 48,0 КГц
Частота кадров : 31,250 кадров/сек (1536 SPF)
Метод сжатия : С потерями
Размер потока : 295 Мбайт (10%)
Заголовок : Original@DD5.1 E-AC3 ,768 Kbps, 48.0 KHz, 6 ch
Язык : English
Service kind : Complete Main
Default : Нет
Forced : Нет
Complexity index : 16
Number of dynamic objects : 15
Bed channel count : 1 канал
Bed channel configuration : LFE
Текст #1
Идентификатор : 2
Формат : UTF-8
Идентификатор кодека : S_TEXT/UTF8
Идентификатор кодека/Информация : UTF-8 Plain Text
Продолжительность : 52 м. 5 с.
Битрейт : 1 бит/сек
Count of elements : 10
Размер потока : 402 байт (0%)
Заголовок : Нимуэ-Russian-Forced
Язык : Russian
Default : Да
Forced : Нет
Текст #2
Идентификатор : 3
Формат : UTF-8
Идентификатор кодека : S_TEXT/UTF8
Идентификатор кодека/Информация : UTF-8 Plain Text
Продолжительность : 52 м. 5 с.
Битрейт : 59 бит/сек
Count of elements : 547
Размер потока : 22,6 Кбайт (0%)
Заголовок : Нимуэ-Russian
Язык : Russian
Default : Нет
Forced : Нет
Текст #3
Идентификатор : 8
Формат : UTF-8
Идентификатор кодека : S_TEXT/UTF8
Идентификатор кодека/Информация : UTF-8 Plain Text
Продолжительность : 52 м. 5 с.
Битрейт : 50 бит/сек
Count of elements : 739
Размер потока : 19,2 Кбайт (0%)
Заголовок : Nimue-Original - SDH
Язык : English
Default : Нет
Forced : Нет
Текст #4
Идентификатор : 9
Формат : UTF-8
Идентификатор кодека : S_TEXT/UTF8
Идентификатор кодека/Информация : UTF-8 Plain Text
Продолжительность : 49 м. 15 с.
Битрейт : 41 бит/сек
Count of elements : 562
Размер потока : 14,9 Кбайт (0%)
Заголовок : Nimue-Original
Язык : English
Default : Нет
Forced : Нет
--

Скриншоты

---- --

Как закачать отдельный файл

1. Открыть торрент
2. Снять галки с тех файлов торрента, которые мы не хотим закачивать. Оставляем только на нужных нам файлах (файле).
3. Нажать О.К.
В клиенте utorrent
Инструкция
1) Открыть торрент

2) Снять галки с тех файлов торрента, которые мы не хотим закачивать:
* либо вручную, снимая с каждого файла галку( скрин №1)
* либо, нажав кнопку "Снять метки (Select None)", сняв сразу со всех файлов(скрин №2)
№1

№2

Оставляем только на нужных нам файлах (файле).

3)Нажать О.К
-- -- --Внимание!!! 11.08. 2020. РАЗДАЧА ОБНОВЛЕНА. ДОБАВЛЕНА -9-10- СЕРИЯ +Звуковая Дорожка NewStudio . Финал Сезона . ОБНОВИТЕ ТОРЕНТ ФАЙЛ. ПРИЯТНОГО ПРОСМОТРА . Поблагодарить:
ЯД: 410017546713876
--Релиз от: Nikolai.Baranov & PIRATIYA -- -- -- --Время раздачи : 24/7---


Последний раз редактировалось: Враг Нароода (2020-08-07 18:55), всего редактировалось 1 раз
[Профиль] [ЛС]
Показать сообщения:    
Ответить на тему

Текущее время: 12-Авг 16:20

Часовой пояс: UTC + 3



Вы не можете начинать темы
Вы не можете отвечать на сообщения
Вы не можете редактировать свои сообщения
Вы не можете удалять свои сообщения
Вы не можете голосовать в опросах
Вы не можете прикреплять файлы к сообщениям
Вы не можете скачивать файлы