Магия зверя / Seules les bêtes / Only the Animals (2019) BDRip 1080p | L

Ответить на тему
Статистика раздачи
Нет
   
 
Автор Сообщение

Viktor59 ®

Стаж: 7 года 7 месяца

Сообщений: 895

Откуда: Измаил

Создавать темы 13-Авг-2020 17:29

[Цитировать]

Информация о фильме
Название: Магия зверя
Оригинальное название: Seules les bêtes / Only the Animals
Год выхода: 2019
Жанр: триллер, драма, криминал
Режиссер: Доминик Молль
В ролях: Дени Меноше, Лор Калами, Дамиен Боннар, Надя Терешкевич, Бастьен Буллон, Валерия Бруни-Тедески, Женни Белле, Фред Улисс, Ролан Плантен, Колин Нил
О фильме: В окрестностях альпийской деревушки во время снежной бури исчезает богатая парижанка Эвелин Дюка. К этому таинственному происшествию неожиданным образом оказываются причастны несколько человек: фермер и его жена, страдающая от неразделенной любви юная официантка, здешний изгой и мошенник-африканец, никогда не покидавший пределы своей родины и заключивший пугающий союз с духами зла…

Страна: Франция, Германия
Студия: Canal+ [fr], Centre National de la Cinématographie (CNC), Haut et Court, The Match Factory
Продолжительность: 01:57:06
Перевод: Любительский (многоголосый, закадровый) Pazl Voice
Файл
Качество: BDRip 1080p | Seules.Les.Betes.2019.FRENCH.1080p.BluRay.DTS.x264-UTT
Формат: Matroska
Видео: 1920x800 at 24.000 fps, x264, ~9100 Kbps avg
Аудио#1: Russian: 48 kHz, AC3, 3/2 (L,C,R,l,r) + LFE ch, ~448 kbps avg |Многоголосый закадровый, Pazl Voice|
Аудио#2: French: 48 kHz, AC3, 3/2 (L,C,R,l,r) + LFE ch, ~448 kbps avg
Субтитры: French (SDH)
***Примечание: Без рекламы

MediaInfo

General
Unique ID : 207481642692243037999617203598374383549 (0x9C1782C788FE03A6AA354F73EA8EAFBD)
Complete name : Seules.Les.Betes.2019.BDRip.1080p.mkv
Format : Matroska
Format version : Version 2
File size : 8.24 GiB
Duration : 1 h 57 min
Overall bit rate : 10.1 Mb/s
Movie name : Магия зверя / Seules les bêtes / Only the Animals (2019)
Encoded date : UTC 2020-08-13 13:36:13
Writing application : mkvmerge v5.8.0 ('No Sleep / Pillow') built on Sep 2 2012 15:37:04
Writing library : libebml v1.2.3 + libmatroska v1.3.0
Video
ID : 1
Format : AVC
Format/Info : Advanced Video Codec
Format profile : High@L4.1
Format settings : CABAC / 5 Ref Frames
Format settings, CABAC : Yes
Format settings, Reference fra : 5 frames
Codec ID : V_MPEG4/ISO/AVC
Duration : 1 h 57 min
Bit rate : 9 177 kb/s
Width : 1 920 pixels
Height : 800 pixels
Display aspect ratio : 2.40:1
Frame rate mode : Constant
Frame rate : 24.000 FPS
Color space : YUV
Chroma subsampling : 4:2:0
Bit depth : 8 bits
Scan type : Progressive
Bits/(Pixel*Frame) : 0.249
Stream size : 7.34 GiB (89%)
Writing library : x264 core 152 r2851 ba24899
Encoding settings : cabac=1 / ref=5 / deblock=1:-3:-3 / analyse=0x3:0x113 / me=umh / subme=10 / psy=1 / psy_rd=1.00:0.00 / mixed_ref=1 / me_range=24 / chroma_me=1 / trellis=2 / 8x8dct=1 / cqm=0 / deadzone=21,11 / fast_pskip=1 / chroma_qp_offset=-2 / threads=24 / lookahead_threads=4 / sliced_threads=0 / nr=0 / decimate=1 / interlaced=0 / bluray_compat=0 / constrained_intra=0 / bframes=8 / b_pyramid=2 / b_adapt=2 / b_bias=0 / direct=3 / weightb=1 / open_gop=0 / weightp=2 / keyint=230 / keyint_min=23 / scenecut=40 / intra_refresh=0 / rc_lookahead=60 / rc=2pass / mbtree=1 / bitrate=9177 / ratetol=1.0 / qcomp=0.60 / qpmin=0 / qpmax=69 / qpstep=4 / cplxblur=20.0 / qblur=0.5 / vbv_maxrate=62500 / vbv_bufsize=78125 / nal_hrd=none / filler=0 / ip_ratio=1.40 / aq=1:1.00
Language : French
Default : Yes
Forced : No
Audio #1
ID : 2
Format : AC-3
Format/Info : Audio Coding 3
Commercial name : Dolby Digital
Codec ID : A_AC3
Duration : 1 h 57 min
Bit rate mode : Constant
Bit rate : 448 kb/s
Channel(s) : 6 channels
Channel layout : L R C LFE Ls Rs
Sampling rate : 48.0 kHz
Frame rate : 31.250 FPS (1536 SPF)
Bit depth : 16 bits
Compression mode : Lossy
Stream size : 375 MiB (4%)
Title : Pazl Voice
Language : Russian
Service kind : Complete Main
Default : Yes
Forced : No
Audio #2
ID : 3
Format : AC-3
Format/Info : Audio Coding 3
Commercial name : Dolby Digital
Codec ID : A_AC3
Duration : 1 h 57 min
Bit rate mode : Constant
Bit rate : 448 kb/s
Channel(s) : 6 channels
Channel layout : L R C LFE Ls Rs
Sampling rate : 48.0 kHz
Frame rate : 31.250 FPS (1536 SPF)
Bit depth : 16 bits
Compression mode : Lossy
Stream size : 375 MiB (4%)
Language : French
Service kind : Complete Main
Default : No
Forced : No
Text
ID : 4
Format : UTF-8
Codec ID : S_TEXT/UTF8
Codec ID/Info : UTF-8 Plain Text
Title : SDH
Language : French
Default : No
Forced : No
Menu
00:00:00.000 : en:00:00:00.000
00:02:12.042 : en:00:02:12.042
00:05:20.500 : en:00:05:20.500
00:12:28.125 : en:00:12:28.125
00:18:19.000 : en:00:18:19.000
00:23:30.625 : en:00:23:30.625
00:29:51.208 : en:00:29:51.208
00:37:13.208 : en:00:37:13.208
00:41:31.500 : en:00:41:31.500
00:48:15.875 : en:00:48:15.875
00:56:38.417 : en:00:56:38.417
01:01:28.500 : en:01:01:28.500
01:12:06.750 : en:01:12:06.750
01: смех:48.833 : en:01: смех:48.833
01:31:21.625 : en:01:31:21.625
01:40:23.542 : en:01:40:23.542
01:46:55.292 : en:01:46:55.292

Скриншоты

[Профиль] [ЛС]
Показать сообщения:    
Ответить на тему

Текущее время: 01-Окт 18:25

Часовой пояс: UTC + 3



Вы не можете начинать темы
Вы не можете отвечать на сообщения
Вы не можете редактировать свои сообщения
Вы не можете удалять свои сообщения
Вы не можете голосовать в опросах
Вы не можете прикреплять файлы к сообщениям
Вы не можете скачивать файлы