Планета обезьян: Война 3D / War for the Planet of the Apes 3D (2017, Мэтт Ривз, BDRip by Ash61, Лицензия) Half OverUnder / Вертикальная анаморфная стереопара

Ответить на тему
 
Автор Сообщение

utermidai ®

Пол: Мужской

Стаж: 7 года

Сообщений: 642

Откуда: Ukraine

Создавать темы 26-Авг-2020 12:54

[Цитировать]


Информация о фильме:
Название: Планета обезьян: Война 3D
Оригинальное название: War for the Planet of the Apes 3D
Страна: США, Канада, Новая Зеландия
Год выпуска: 11 июля 2017
Слоган: «Кульминация великого противостояния»
Производство: Chernin Entertainment, River Road Entertainment, TSG Entertainment
Жанр: Фантастика, Боевик, Триллер, Приключения
Продолжительность: 02:20:09
Перевод: Профессиональный дублированный (лицензия)
Режиссер: Мэтт Ривз

Роли исполняли (дублировали):
Caesar Энди Серкис ( Андрей Пирог )
The Colonel Вуди Харрельсон ( Дмитрий Полонский )
Bad Ape Стив Зан ( Станислав Войнич )
Maurice Карин Коновал ( Татьяна Рассказова )
Nova Амайя Миллер
Rocket Терри Нотари
Red Donkey Тай Олссон ( Роман Никитин )
Luca Майкл Адамуэйт
Koba Тоби Кеббелл ( Владимир Черных )
Preacher Гэбриел Чаварриа ( Михаил Хрусталев )
Cornelia Джуди Грир О фильме:
Армию генетически модифицированных обезьян ожидает новый вызов: они вынуждены вступить в смертельную схватку с армией людей под руководством безжалостного полковника.
После невообразимых потерь среди своих воинов вождь обезьян Цезарь начинает личную борьбу с темными инстинктами и собирается отомстить за весь свой вид.
В конце концов он и полковник должны будут сойтись в эпической битве, которая решит, кто теперь будет править на Земле - люди или обезьяны.-- Информация о видео-файле:
Качество: BDRip (by Ash61)
Контейнер: MKV
Формат 3D: Half OverUnder / Вертикальная анаморфная стереопара
Порядок ракурсов: левый ракурс первый
Видео:
AVC / 1920х1080p / 23,976 fps / 10 Mbps
Аудио:
#1 - Русский / AC3 / 48 KHz / 5.1 ch / 640 Kbps (Дубляж [BD Eur] + VO [BadBajo]) [монтаж - Ash61]
#2 - Русский / AC3 / 48 KHz / 5.1 ch / 640 Kbps (Дубляж - BD 3D Eur)
#3 - Украинский / AC3 / 48 KHz / 2 ch / 192 Kbps (Дубляж - iTunes)
#4 - Английский / AC3 / 48 KHz / 5.1 ch / 640 Kbps (Original - BD 3D Eur)
Субтитры(SRT):
Вшитые (softsub):
#1 - Русские Форсированные [для дубляжа с BadBajo] (включены по умолчанию)
#2 - Русские Форсированные [для чистого дубляжа]
#3 - Русские Полные
#4 - Украинские Форсированные
#5 - Украинские Полные
#6 - English Forced
#7 - English Full
#8 - English SDH
Внешние (UTF-8):
#1 - Русские Форсированные [для дубляжа с BadBajo] (включены по умолчанию)
#2 - Русские Форсированные [для чистого дубляжа]
#3 - Русские Полные
#4 - Украинские Форсированные Знаете ли вы, что...

Знаете ли вы, что...

Энди Серкис, Терри Нотари и Карин Коновал — единственные актёры, сыгравшие во всех фильмах трилогии «Планета обезьян». Серкис играл предводителя всех обезьян Цезаря, а Нотари и Коновал — Ракету и Морис, приближённых Цезаря.
Девятый фильм франшизы «Планета обезьян».
По словам режиссёра Мэтта Ривза, группу людей-бунтарей называют «Альфа и омега». Это отсылка к кобальтовой бомбе, которой люди-мутанты поклонялись в фильме Теда Поста «Под планетой обезьян» (1970). Даже символ на их шлемах и флаге является копией символа на бомбе, взрывом которой завершается второй фильм франшизы.
Девочку Нову назвали именем персонажа, которого в первых двух фильмах франшизы (1968 и 1970) играла Линда Харрисон. Эта же актриса снялась в эпизодической роли в фильме Тима Бёртона «Планета обезьян» (2001).
В отличие от своих коллег Энди Серкиса и Терри Нотари, 55-летняя канадская актриса Карин Коновал до участия в франшизе никогда не выполняла каскадёрские функции на съёмках, и для подготовки к роли орангутана Мориса она проводила много времени с приматами в зоопарке, а также обучалась их движениям и повадкам, надевая при этом тяжёлые грузы на каждую руку, чтобы достовернее выглядеть на экране.
Актёры Энди Серкис (Цезарь) и Тоби Кеббелл (Коба) играли Кинг Конга. Энди Серкис в фильме «Кинг Конг» (2005) Питера Джексона, где помимо самого Кинг Конга, так же исполнил небольшую роль кока Лампи, а Тоби Кеббелл в фильме «Конг: Остров черепа» (2017), где помимо самого Кинг Конга, так же исполнил небольшую роль майора Джека Чэпмена. Примечательно, что второстепенные персонажи обоих погибают к середине фильма от рук монстров с острова, но не Кинг Конга.
Mедиа инфо

M/инфо

General
Unique ID : 185555459167948244260282965928690436316 (0x8B98AE77CE8DBE5D8BAFE703CD31C8DC)
Complete name : D:WarForThePlanetOfTheApes(2017)3D-halfOU(Ash61)WarForThePlanetOfTheApes(2017)3D-halfOU(Ash61).mkv
Format : Matroska
Format version : Version 2
File size : 11.9 GiB
Duration : 2 h 20 min
Overall bit rate : 12.1 Mb/s
Movie name : Планета обезьян: Война / War for the Planet of the Apes (2017) in 3D
Encoded date : UTC 2017-10-18 07:48:05
Writing application : mkvmerge v5.8.0 ('No Sleep / Pillow') built on Sep 2 2012 15:37:04
Writing library : libebml v1.2.3 + libmatroska v1.3.0
Video
ID : 1
Format : AVC
Format/Info : Advanced Video Codec
Format profile : High@L4.1
Format settings, CABAC : Yes
Format settings, RefFrames : 4 frames
Codec ID : V_MPEG4/ISO/AVC
Duration : 2 h 20 min
Bit rate : 10 000 kb/s
Width : 1 920 pixels
Height : 1 080 pixels
Display aspect ratio : 16:9
Frame rate mode : Constant
Frame rate : 23.976 (24000/1001) FPS
Color space : YUV
Chroma subsampling : 4:2:0
Bit depth : 8 bits
Scan type : Progressive
Bits/(Pixel*Frame) : 0.201
Stream size : 9.56 GiB (81%)
Title : BDRip by Ash61
Writing library : x264 core 146 r2538 121396c
Encoding settings : cabac=1 / ref=4 / deblock=1:-3:-3 / analyse=0x3:0x113 / me=umh / subme=10 / psy=1 / psy_rd=1.00:0.00 / mixed_ref=1 / me_range=32 / chroma_me=1 / trellis=2 / 8x8dct=1 / cqm=0 / deadzone=21,11 / fast_pskip=0 / chroma_qp_offset=-2 / threads=12 / lookahead_threads=3 / sliced_threads=0 / nr=0 / decimate=0 / interlaced=0 / bluray_compat=0 / constrained_intra=0 / bframes=10 / b_pyramid=2 / b_adapt=2 / b_bias=0 / direct=3 / weightb=1 / open_gop=0 / weightp=2 / keyint=250 / keyint_min=23 / scenecut=40 / intra_refresh=0 / rc_lookahead=60 / rc=2pass / mbtree=0 / bitrate=10000 / ratetol=1.0 / qcomp=0.70 / qpmin=0 / qpmax=69 / qpstep=4 / cplxblur=20.0 / qblur=0.5 / vbv_maxrate=40000 / vbv_bufsize=30000 / nal_hrd=none / filler=0 / frame-packing=4 / ip_ratio=1.40 / pb_ratio=1.30 / aq=1:0.70
Language : English
Default : Yes
Forced : No
Audio #1
ID : 2
Format : AC-3
Format/Info : Audio Coding 3
Format settings, Endianness : Big
Codec ID : A_AC3
Duration : 2 h 20 min
Bit rate mode : Constant
Bit rate : 640 kb/s
Channel(s) : 6 channels
Channel positions : Front: L C R, Side: L R, LFE
Sampling rate : 48.0 kHz
Frame rate : 31.250 FPS (1536 SPF)
Bit depth : 16 bits
Compression mode : Lossy
Stream size : 642 MiB (5%)
Title : Дубляж [BD Eur] со вставками VO [BadBajo] (на общение обезьян) (монтаж - Ash61)
Language : Russian
Service kind : Complete Main
Default : Yes
Forced : No
Audio #2
ID : 3
Format : AC-3
Format/Info : Audio Coding 3
Format settings, Endianness : Big
Codec ID : A_AC3
Duration : 2 h 20 min
Bit rate mode : Constant
Bit rate : 640 kb/s
Channel(s) : 6 channels
Channel positions : Front: L C R, Side: L R, LFE
Sampling rate : 48.0 kHz
Frame rate : 31.250 FPS (1536 SPF)
Bit depth : 16 bits
Compression mode : Lossy
Stream size : 642 MiB (5%)
Title : Дубляж - BD 3D Eur
Language : Russian
Service kind : Complete Main
Default : No
Forced : No
Audio #3
ID : 4
Format : AC-3
Format/Info : Audio Coding 3
Format settings, Endianness : Big
Codec ID : A_AC3
Duration : 2 h 20 min
Bit rate mode : Constant
Bit rate : 192 kb/s
Channel(s) : 2 channels
Channel positions : Front: L R
Sampling rate : 48.0 kHz
Frame rate : 31.250 FPS (1536 SPF)
Bit depth : 16 bits
Compression mode : Lossy
Stream size : 192 MiB (2%)
Title : Дубляж - iTunes
Language : Ukrainian
Service kind : Complete Main
Default : No
Forced : No
Audio #4
ID : 5
Format : AC-3
Format/Info : Audio Coding 3
Format settings, Endianness : Big
Codec ID : A_AC3
Duration : 2 h 20 min
Bit rate mode : Constant
Bit rate : 640 kb/s
Channel(s) : 6 channels
Channel positions : Front: L C R, Side: L R, LFE
Sampling rate : 48.0 kHz
Frame rate : 31.250 FPS (1536 SPF)
Bit depth : 16 bits
Compression mode : Lossy
Stream size : 642 MiB (5%)
Title : Original - BD 3D Eur
Language : English
Service kind : Complete Main
Default : No
Forced : No
Text #1
ID : 6
Format : UTF-8
Codec ID : S_TEXT/UTF8
Codec ID/Info : UTF-8 Plain Text
Title : Форсированные (для дороги с VO BadBajo)
Language : Russian
Default : Yes
Forced : No
Text #2
ID : 7
Format : UTF-8
Codec ID : S_TEXT/UTF8
Codec ID/Info : UTF-8 Plain Text
Title : Форсированные (для чистого дубляжа)
Language : Russian
Default : No
Forced : No
Text #3
ID : 8
Format : UTF-8
Codec ID : S_TEXT/UTF8
Codec ID/Info : UTF-8 Plain Text
Title : Полные
Language : Russian
Default : No
Forced : No
Text #4
ID : 9
Format : UTF-8
Codec ID : S_TEXT/UTF8
Codec ID/Info : UTF-8 Plain Text
Title : Форсированные
Language : Ukrainian
Default : No
Forced : No
Text #5
ID : 10
Format : UTF-8
Codec ID : S_TEXT/UTF8
Codec ID/Info : UTF-8 Plain Text
Title : Полные
Language : Ukrainian
Default : No
Forced : No
Text #6
ID : 11
Format : UTF-8
Codec ID : S_TEXT/UTF8
Codec ID/Info : UTF-8 Plain Text
Title : Forced
Language : English
Default : No
Forced : No
Text #7
ID : 12
Format : UTF-8
Codec ID : S_TEXT/UTF8
Codec ID/Info : UTF-8 Plain Text
Title : Full
Language : English
Default : No
Forced : No
Text #8
ID : 13
Format : UTF-8
Codec ID : S_TEXT/UTF8
Codec ID/Info : UTF-8 Plain Text
Title : SDH
Language : English
Default : No
Forced : No
Menu
00:00:00.000 : :1
00:05:05.889 : :2
00:09:06.713 : :3
00:12:14.108 : :4
00:18:21.017 : :5
00:25:04.503 : :6
00:30:17.399 : :7
00:34:13.093 : :8
00:37:46.347 : :9
00:42:54.447 : :10
00:49:31.802 : :11
00:54:14.626 : :12
00:58:49.818 : :13
01:05:24.129 : :14
01:10:18.381 : :15
01:14:53.823 : :16
01:18:59.193 : :17
01:25:35.672 : :18
01:29:37.372 : :19
01:34:22.824 : :20
01:39:27.712 : :21
01:43:48.222 : :22
01:48:45.394 : :23
01:55:20.580 : :24
01:58:04.703 : :25
02:02:33.930 : :26
02:05:54.797 : :27
02:12:51.213 : :28


-Время раздачи: по мере возможности
[Профиль] [ЛС]
Показать сообщения:    
Ответить на тему

Текущее время: 16-Янв 00:26

Часовой пояс: UTC + 3



Вы не можете начинать темы
Вы не можете отвечать на сообщения
Вы не можете редактировать свои сообщения
Вы не можете удалять свои сообщения
Вы не можете голосовать в опросах
Вы не можете прикреплять файлы к сообщениям
Вы не можете скачивать файлы