Страна Лавкрафта / Lovecraft Country (Сезон 1 , Серия 1-9 из 10) (Дэниэл Сакхайм, Ян Деманж) [2020,Триллер, Ужасы,, экранизация,WEB-DLRip - HEVC 10bit - 1080p] [Novamedia+NewStudio+HDRezka Studio+AlexFilm+Eng]+[Subs Rus , ENG]

Ответить на тему
Статистика раздачи
Нет
   
 
Автор Сообщение

Враг Нароода ®

Стаж: 4 года 9 месяца

Сообщений: 337

Создавать темы 02-Сен-2020 13:18

[Цитировать]

---- -- Страна Лавкрафта / Lovecraft Country (Сезон 1 , Серия 1-9 из 10) -- --Год выпуска: 2020
Выпущено: США , Bad Robot, Monkeypaw Productions, Warner Bros. Television, HBO
Жанр: Ужасы, фантастика, фэнтези, триллер, драма, детектив, экранизация
Продолжительность:01:00:00
Сезон:1
Серия:1-9
Количество серий в сезоне: 10--Озвучка #1:Профессиональный многоголосый Novamedia - Русский
Озвучка 2: Профессиональный многоголосый- HDRezka - Русский
Озвучка 3: Профессиональный многоголосый- NewStudio - Русский
Озвучка 4: Профессиональный многоголосый- AlexFilm - Русский
Озвучка #5: Профессиональный многоголосый -Английский - Оригинал--Субтитры (UTF-8): вшитые
#1 - Русские - Russian (включены по умолчанию)
#2 - Русские- Russian (Forced)
#3- Английские - English (SDH)--Внешние:
#1- Английские - English (SDH)
#2 - Русские- Russian (Forced)
#3 - Русские- Russian
--Релиз Без Рекламы --MDB 7.5 --Режиссеры:
Дэниэл Сакхайм, Ян Деманж, Виктория Махони, Шерил Дьюнай, Дэвид Петрарка --В ролях: Джонатан Мэйджерс, Джерни Смоллетт, Кортни Б. Вэнс, Майкл Кеннет Уильямс, Чейз Браун, Онжаню Эллис, Маркус А. Гриффин мл., Эбби Ли, Вунми Моссаку, Джада Харрис, Шон Рэй Картель, Мак Брандт, Алекс Коллинз, Джейми Чунг, Джейми Ньюманн, Джордан Патрик Смит-- 22-летний ветеран Корейской войны Аттикус вместе с подругой детства и дядей отправляется в путешествие по Штатам на поиски отца. На пути он встретится не только с расистами, но и с настоящими монстрами.-- --Качество : WEB-DLRip - HEVC 10bit - 1080p
Формат: MKV
Видео кодек: H265
Видео: 4648 Кбит/сек,1920х1080 , (16.9),в 23.976кадр/сек, HEVC (Main10@L5.1@Main)--Аудио Кодек:Аудио Кодек:AC3
Аудио #1: MVO Novamedia @DD5.1 AC3, 384 Kbps, 48.0 KHz, 6 ch -
Novamedia - Русский

Аудио #2: MVO HDRezka Studio @DD5.1 AC3, 384 Kbps, 48.0 KHz, 6 ch- HDRezka Studio - Русский
Аудио #3: MVO NewStudio @DD5.1 AC3, 640 Kbps, 48.0 KHz, 6 ch - NewStudio - Русский
Аудио #4: MVO AlexFilm @DD5.1 AC3, 384 Kbps, 48.0 KHz, 6 ch- AlexFilm - Русский
Аудио #5: Original @DD5.1, E-AC3 ,640 Kbps, 48.0 KHz, 6 ch - English - Оригинал-

Доп. информация:

Звуковая дорожка сделана путем наложения чистого голоса озвучивателей на центральный канал оригинальной дорожки. Качество идентично звуковой дорожке.
--

Список эпизодов сезона


01. Закат — Sundown
02. Белый на Луне — Whitey's on the Moon
03. Святой Дух — Holy Ghost
04. История насилия — A History of Violence
05. Странный случай — Strange Case
06. Встреть меня в Тэгу — Meet Me in Daegu
07. Я есть. — I Am.
08. Джиг-А-Бобо — Jig-a-Bobo
09. Возвращение в 1921 — Rewind 1921
--

MediaInfo

Общее
Уникальный идентификатор : 332916349275465397090019837123107382745 (0xFA755B4A6FE52DA621F98EB5247665D9)
Полное имя : F:\Страна Лавкрафта - Lovecraft Country\Lovecraft.Country.2020_S01_HEVC_Н265_DD5.1_N.B_HD_1080_4xRus_Eng\Lovecraft.Country.S01E01_HEVC_Н265_DD5.1_N.B_HD_1080_4xRus_Eng.mkv
Формат : Matroska
Версия формата : Version 4
Размер файла : 3,32 Гбайт
Продолжительность : 1 ч. 9 м.
Общий поток : 6 828 Кбит/сек
Название фильма : Lovecraft Country 2020 S01E01 @ Nikolai.Baranov & PIRATIYA
Дата кодирования : UTC 2020-09-06 08:06:53
Программа кодирования : mkvmerge v49.0.0 ('Sick Of Losing Soulmates') 64-bit
Библиотека кодирования : libebml v1.4.0 + libmatroska v1.6.1
Видео
Идентификатор : 1
Формат : HEVC
Формат/Информация : High Efficiency Video Coding
Профиль формата : Main 10@L5.1@Main
Идентификатор кодека : V_MPEGH/ISO/HEVC
Продолжительность : 1 ч. 9 м.
Битрейт : 4 649 Кбит/сек
Ширина : 1 920 пикселей
Высота : 1 080 пикселей
Соотношение сторон : 16:9
Режим частоты кадров : Постоянный
Частота кадров : 23,976 (24000/1001) кадра/сек
Цветовое пространство : YUV
Субдискретизация насыщенности : 4:2:0
Битовая глубина : 10 бит
Бит/(Пиксели*Кадры) : 0.094
Размер потока : 2,26 Гбайт (68%)
Заголовок : Lovecraft.Country.S01E01_HEVC_Н265_DD5.1_N.B_HD_1080_4xRus_Eng
Язык : Russian
Default : Да
Forced : Нет
Цветовой диапазон : Full
Основные цвета : BT.709
Характеристики трансфера : BT.709
Коэффициенты матрицы : BT.709
Аудио #1
Идентификатор : 4
Формат : AC-3
Формат/Информация : Audio Coding 3
Коммерческое название : Dolby Digital
Идентификатор кодека : A_AC3
Продолжительность : 1 ч. 9 м.
Вид битрейта : Постоянный
Битрейт : 384 Кбит/сек
Каналы : 6 каналов
Channel layout : L R C LFE Ls Rs
Частота : 48,0 КГц
Частота кадров : 31,250 кадров/сек (1536 SPF)
Метод сжатия : С потерями
Размер потока : 191 Мбайт (6%)
Заголовок : MVO Novamedia @DD5.1 AC3, 384 Kbps, 48.0 KHz, 6 ch
Язык : Russian
Service kind : Complete Main
Default : Да
Forced : Нет
Аудио #2
Идентификатор : 5
Формат : AC-3
Формат/Информация : Audio Coding 3
Коммерческое название : Dolby Digital
Идентификатор кодека : A_AC3
Продолжительность : 1 ч. 9 м.
Вид битрейта : Постоянный
Битрейт : 384 Кбит/сек
Каналы : 6 каналов
Channel layout : L R C LFE Ls Rs
Частота : 48,0 КГц
Частота кадров : 31,250 кадров/сек (1536 SPF)
Метод сжатия : С потерями
Размер потока : 191 Мбайт (6%)
Заголовок : MVO NewStudio @DD5.1 AC3, 384 Kbps, 48.0 KHz, 6 ch
Язык : Russian
Service kind : Complete Main
Default : Нет
Forced : Нет
Аудио #3
Идентификатор : 6
Формат : AC-3
Формат/Информация : Audio Coding 3
Коммерческое название : Dolby Digital
Идентификатор кодека : A_AC3
Продолжительность : 1 ч. 9 м.
Вид битрейта : Постоянный
Битрейт : 384 Кбит/сек
Каналы : 6 каналов
Channel layout : L R C LFE Ls Rs
Частота : 48,0 КГц
Частота кадров : 31,250 кадров/сек (1536 SPF)
Метод сжатия : С потерями
Размер потока : 191 Мбайт (6%)
Заголовок : MVO HDRezka Studio @DD5.1 AC3, 384 Kbps, 48.0 KHz, 6 ch
Язык : Russian
Service kind : Complete Main
Default : Нет
Forced : Нет
Аудио #4
Идентификатор : 7
Формат : AC-3
Формат/Информация : Audio Coding 3
Коммерческое название : Dolby Digital
Идентификатор кодека : A_AC3
Продолжительность : 1 ч. 9 м.
Вид битрейта : Постоянный
Битрейт : 384 Кбит/сек
Каналы : 6 каналов
Channel layout : L R C LFE Ls Rs
Частота : 48,0 КГц
Частота кадров : 31,250 кадров/сек (1536 SPF)
Метод сжатия : С потерями
Размер потока : 191 Мбайт (6%)
Заголовок : MVO AlexFilm @DD5.1 AC3, 384 Kbps, 48.0 KHz, 6 ch
Язык : Russian
Service kind : Complete Main
Default : Нет
Forced : Нет
Аудио #5
Идентификатор : 8
Формат : E-AC-3
Формат/Информация : Enhanced AC-3
Коммерческое название : Dolby Digital Plus
Идентификатор кодека : A_EAC3
Продолжительность : 1 ч. 9 м.
Вид битрейта : Постоянный
Битрейт : 640 Кбит/сек
Каналы : 6 каналов
Channel layout : L R C LFE Ls Rs
Частота : 48,0 КГц
Частота кадров : 31,250 кадров/сек (1536 SPF)
Метод сжатия : С потерями
Размер потока : 319 Мбайт (9%)
Заголовок : Original @DD5.1, E-AC3 ,640 Kbps, 48.0 KHz, 6 ch
Язык : English
Service kind : Complete Main
Default : Нет
Forced : Нет
Текст #1
Идентификатор : 2
Формат : UTF-8
Идентификатор кодека : S_TEXT/UTF8
Идентификатор кодека/Информация : UTF-8 Plain Text
Продолжительность : 1 ч. 2 м.
Битрейт : 1 бит/сек
Count of elements : 19
Размер потока : 861 байт (0%)
Заголовок : Закат-Russian-Forced
Язык : Russian
Default : Да
Forced : Нет
Текст #2
Идентификатор : 3
Формат : UTF-8
Идентификатор кодека : S_TEXT/UTF8
Идентификатор кодека/Информация : UTF-8 Plain Text
Продолжительность : 1 ч. 5 м.
Битрейт : 84 бит/сек
Count of elements : 836
Размер потока : 41,0 Кбайт (0%)
Заголовок : Закат-Russian
Язык : Russian
Default : Нет
Forced : Нет
Текст #3
Идентификатор : 9
Формат : UTF-8
Идентификатор кодека : S_TEXT/UTF8
Идентификатор кодека/Информация : UTF-8 Plain Text
Продолжительность : 1 ч. 9 м.
Битрейт : 73 бит/сек
Count of elements : 1348
Размер потока : 37,3 Кбайт (0%)
Заголовок : -Sundown-Original - SDH
Язык : English
Default : Нет
Forced : Нет
Меню
00:00:00.000 : ru:Глава 01 / ru:Глава 01 / ru:Глава 01 / ru:Глава 01 / ru:Глава 01 / ru:Глава 01 / ru:Глава 01 / ru:Глава 01 / ru:Глава 01
--

Скриншоты

---- --Внимание! Раздача пополняется по мере выхода новых серий!--

Внимание! Раздача ведётся путём добавления новых серий!

Раздача ведётся путём добавления новых серий; при каждом добавлении создётся новый торрент.
Чтобы начать докачку новой серии, пользователям необходимо сделать следующее:
1. остановить скачивание,
2. удалить старый торрент у себя из клиента (старые серии удалять не надо),
3. скачать новый торрент и запустить его у себя в клиенте вместо старого, при этом указать клиенту путь в старую папку, куда и должно происходить скачивание новых серий.
Ваш клиент при этом должен произвести хеширование (проверку) старой папки (если не производит сам - помогите ему сделать это), и будет докачивать только те серии которых у вас ещё нет. Старые серии при этом не удаляются, а продолжают раздаваться!
Eсли вы уже удалили старые серии, то предотвратить повторную закачку старых серий можно, отжав галочку в соответсвующих местах при запуске нового торрента. По возможности, желательно не удалять старые серии как можно дольше, чтобы релизёр не столько продолжал раздавать старые серии, а смог сконцентрироваться на новых.
Совет для тех, кто не хочет ждать перехеширования:
Создайте ещё одну папку рядом с папкой сериала (рядом, а не в ней!!!). Каждую новую серию после удачной загрузки копируйте в новую папку так чтобы ваша основная папка всегда была пуста. Когда ваш новый торрент предложит вам закачать все файлы, выберете только последнюю. Для сидирования же укажите адрес новой папки.
Как закачать отдельный файл из торрента или докачать ранее пропущенные файлы торрента!

Как закачать отдельный файл

1. Открыть торрент
2. Снять галки с тех файлов торрента, которые мы не хотим закачивать. Оставляем только на нужных нам файлах (файле).
3. Нажать О.К.
В клиенте utorrent
Инструкция
1) Открыть торрент

2) Снять галки с тех файлов торрента, которые мы не хотим закачивать:
* либо вручную, снимая с каждого файла галку( скрин №1)
* либо, нажав кнопку "Снять метки (Select None)", сняв сразу со всех файлов(скрин №2)
№1

№2

Оставляем только на нужных нам файлах (файле).

3)Нажать О.К
-- -- --Внимание!!! 17.10. 2020. РАЗДАЧА ОБНОВЛЕНА. ДОБАВЛЕНА - 9 - СЕРИЯ . ОБНОВИТЕ ТОРЕНТ ФАЙЛ. ПРИЯТНОГО ПРОСМОТРА . Поблагодарить:
ЯД: 410017546713876
--Релиз от: Nikolai.Baranov & PIRATIYA -- -- -- --Время раздачи : 24/7---


Последний раз редактировалось: Враг Нароода (2020-10-17 17:27), всего редактировалось 4 раз(а)
[Профиль] [ЛС]
Показать сообщения:    
Ответить на тему

Текущее время: 20-Окт 03:53

Часовой пояс: UTC + 3



Вы не можете начинать темы
Вы не можете отвечать на сообщения
Вы не можете редактировать свои сообщения
Вы не можете удалять свои сообщения
Вы не можете голосовать в опросах
Вы не можете прикреплять файлы к сообщениям
Вы не можете скачивать файлы