Миньоны / Minions (2015, Кайл Балда, Пьер Коффан, BDRip 1080p от Ash61) Half OverUnder / Вертикальная анаморфная стереопара | Лицензия

Ответить на тему
Статистика раздачи
Нет
   
 
Автор Сообщение

utermidai ®

Стаж: 6 года 9 месяца

Сообщений: 627

Откуда: Ukraine

Создавать темы 07-Сен-2020 20:20

[Цитировать]


Информация о фильме:
Название: Миньоны
Оригинальное название: Minions
Страна: США
Студия: Universal Pictures, Illumination Entertainment
Слоган: «Ой, всё»
Год выпуска: 11 июня 2015
Жанр: Комедия, Семейный
Продолжительность: 01:30:58
Перевод: Профессиональный дублированный (Лицензия)
Режиссер: Кайл Балда, Пьер Коффан

Роли озвучили (дублировали):
Scarlet Overkill Сандра Буллок (Алена Фалалеева)
Herb Overkill Джон Хэмм (Сергей Смирнов)
Walter Nelson Майкл Китон (Игорь Старосельцев)
Madge Nelson Эллисон Дженни (Алёна Ивченко)
Professor Flux / Tower Guard Стив Куган (Олег Форостенко, Алексей Колган)
The Queen Дженнифер Сондерс (Ирина Маликова)
Рассказчик Джеффри Раш (Борис Клюев)
Молодой Грю Стив Карелл (Сергей Бурунов)
Миньоны Пьер Коффан
Tina Кэти Миксон (Наталья Терешкова)
VNC Announcer / Walter Jr Майкл Битти
Sumo Villain Хироюки Санада (Алексей Колган)
Fabrice Дэйв Розенбаум (Даниил Эльдаров) О фильме:
Миньоны живут на планете гораздо дольше нас.
У них одна навязчивая идея — служить самой Гадкой личности из имеющихся в наличии. Динозавры, фараоны, Дракула, Наполеон — все они оказались недолговечны.
И тогда миньоны рванули в Нью-Йорк. Их ждут деньги, власть, роковая суперзлодейка Скарлет Оверкилл и, конечно же, вкуснейшая «банана»!
Во всяком случае, так им кажется.-- Информация о видео-файле:
Качество: BDRip (с BD EUR)
Контейнер: MKV
Формат 3D: Half OverUnder / Вертикальная анаморфная стереопара
Порядок ракурсов: левый ракурс первый
Видео: AVC / 23,976 fps / 1920х1080p / 15.5 Mbps
Аудио:
#1 - AC3 / 48 KHz / 5.1 ch / 640 Kbps (Дубляж - BD Eur)
#2 - Украинский / AC3 / 48 KHz / 5.1 ch / 640 Kbps (Дубляж - BD Eur)
#3 - Английский / AC3 / 48 KHz / 5.1 ch / 640 Kbps (Original - BD 3D)
Субтитры(UTF-8):
Вшитые (softsub):
#1 - Русские Форсированные (включены по умолчанию)
#2 - Русские Полные
#3 - Украинские Форсированные
#4 - Украинские Полные
#5 - English Full
#6 - English SDH
Внешние (UTF-8):
#1 - Русские Форсированные (включены по умолчанию)
#2 - Украинские Форсированные Знаете ли вы, что...

Знаете ли вы, что...

Соло, которое играет Стюарт на новой электрогитаре в конце мультфильма — это композиция Эдварда Ван Халена «Eruption».
Во время сцены со сказкой на ночь на фоне играет произведение Сергея Прокофьева «Петя и волк».
Это первый фильм, в котором Сандра Буллок изображает злодейку.
Режиссер Пьер Коффан озвучил всех 899 миньонов.
Мировые сборы «Миньонов» превысили один миллиард долларов. Таким образом, Universal стала первой в истории студией, у которой сразу три фильма за один год покорили эту отметку. Другие два фильма — это «Форсаж 7» (2015) и «Мир Юрского периода» (2015).
Корону Британской империи, которую носит Боб во время сцены «коронации», можно также увидеть и в фильме «Гадкий я» (2010), когда все миньоны предлагают сокровища, чтобы помочь Грю осуществить кражу Луны.
Mедиа инфо

M/инфо

General
Unique ID : 194749770497280405093499469700652879307 (0x92837103EFE5F66BB0535D75E5F04DCB)
Complete name : E:Minions(2015)3D-halfOU(Ash61)Minions(2015)3D-halfOU(Ash61).mkv
Format : Matroska
Format version : Version 2
File size : 11.3 GiB
Duration : 1h 30mn
Overall bit rate : 17.8 Mbps
Movie name : Миньоны / Minions (2015) в 3Д
Encoded date : UTC 2015-11-15 11:12:36
Writing application : mkvmerge v5.8.0 ('No Sleep / Pillow') built on Sep 2 2012 15:37:04
Writing library : libebml v1.2.3 + libmatroska v1.3.0
Video
ID : 1
Format : AVC
Format/Info : Advanced Video Codec
Format profile : High@L4.1
Format settings, CABAC : Yes
Format settings, ReFrames : 4 frames
Codec ID : V_MPEG4/ISO/AVC
Duration : 1h 30mn
Bit rate : 15.5 Mbps
Width : 1 920 pixels
Height : 1 080 pixels
Display aspect ratio : 16:9
Frame rate mode : Constant
Frame rate : 23.976 fps
Color space : YUV
Chroma subsampling : 4:2:0
Bit depth : 8 bits
Scan type : Progressive
Bits/(Pixel*Frame) : 0.312
Stream size : 9.85 GiB (87%)
Title : BDRip by Ash61
Writing library : x264 core 146 r2538 121396c
Encoding settings : cabac=1 / ref=4 / deblock=1:-3:-3 / analyse=0x3:0x113 / me=umh / subme=10 / psy=1 / psy_rd=1.00:0.00 / mixed_ref=1 / me_range=32 / chroma_me=1 / trellis=2 / 8x8dct=1 / cqm=0 / deadzone=21,11 / fast_pskip=1 / chroma_qp_offset=-2 / threads=12 / lookahead_threads=3 / sliced_threads=0 / nr=0 / decimate=1 / interlaced=0 / bluray_compat=0 / constrained_intra=0 / bframes=10 / b_pyramid=2 / b_adapt=2 / b_bias=0 / direct=3 / weightb=1 / open_gop=0 / weightp=2 / keyint=250 / keyint_min=23 / scenecut=40 / intra_refresh=0 / rc_lookahead=60 / rc=crf / mbtree=1 / crf=16.0 / qcomp=0.70 / qpmin=0 / qpmax=69 / qpstep=4 / vbv_maxrate=40000 / vbv_bufsize=30000 / crf_max=0.0 / nal_hrd=none / filler=0 / frame-packing=4 / ip_ratio=1.40 / aq=1:0.70
Language : English
Default : Yes
Forced : No
Audio #1
ID : 2
Format : AC-3
Format/Info : Audio Coding 3
Mode extension : CM (complete main)
Format settings, Endianness : Big
Codec ID : A_AC3
Duration : 1h 30mn
Bit rate mode : Constant
Bit rate : 640 Kbps
Channel(s) : 6 channels
Channel positions : Front: L C R, Side: L R, LFE
Sampling rate : 48.0 KHz
Bit depth : 16 bits
Compression mode : Lossy
Stream size : 416 MiB (4%)
Title : Дубляж - BD Eur
Language : Russian
Default : Yes
Forced : No
Audio #2
ID : 3
Format : AC-3
Format/Info : Audio Coding 3
Mode extension : CM (complete main)
Format settings, Endianness : Big
Codec ID : A_AC3
Duration : 1h 30mn
Bit rate mode : Constant
Bit rate : 640 Kbps
Channel(s) : 6 channels
Channel positions : Front: L C R, Side: L R, LFE
Sampling rate : 48.0 KHz
Bit depth : 16 bits
Compression mode : Lossy
Stream size : 416 MiB (4%)
Title : Дубляж - BD Eur
Language : Ukrainian
Default : No
Forced : No
Audio #3
ID : 4
Format : AC-3
Format/Info : Audio Coding 3
Mode extension : CM (complete main)
Format settings, Endianness : Big
Codec ID : A_AC3
Duration : 1h 30mn
Bit rate mode : Constant
Bit rate : 640 Kbps
Channel(s) : 6 channels
Channel positions : Front: L C R, Side: L R, LFE
Sampling rate : 48.0 KHz
Bit depth : 16 bits
Compression mode : Lossy
Stream size : 416 MiB (4%)
Title : Original - BD 3D
Language : English
Default : No
Forced : No
Text #1
ID : 5
Format : UTF-8
Codec ID : S_TEXT/UTF8
Codec ID/Info : UTF-8 Plain Text
Title : Форсированные (редакция Ash61)
Language : Russian
Default : Yes
Forced : No
Text #2
ID : 6
Format : UTF-8
Codec ID : S_TEXT/UTF8
Codec ID/Info : UTF-8 Plain Text
Title : Полные
Language : Russian
Default : No
Forced : No
Text #3
ID : 7
Format : UTF-8
Codec ID : S_TEXT/UTF8
Codec ID/Info : UTF-8 Plain Text
Title : Форсированные (сделал Ash61)
Language : Ukrainian
Default : No
Forced : No
Text #4
ID : 8
Format : UTF-8
Codec ID : S_TEXT/UTF8
Codec ID/Info : UTF-8 Plain Text
Title : Полные
Language : Ukrainian
Default : No
Forced : No
Text #5
ID : 9
Format : UTF-8
Codec ID : S_TEXT/UTF8
Codec ID/Info : UTF-8 Plain Text
Title : Full
Language : English
Default : No
Forced : No
Text #6
ID : 10
Format : UTF-8
Codec ID : S_TEXT/UTF8
Codec ID/Info : UTF-8 Plain Text
Title : SDH
Language : English
Default : No
Forced : No
Menu
00:00:00.000 : :1
00:05:39.838 : :2
00:11:28.937 : :3
00:16:55.139 : :4
00:22:28.430 : :5
00:26:59.034 : :6
00:32:54.638 : :7
00:37:28.871 : :8
00:40:58.831 : :9
00:45:29.309 : :10
00:49:24.085 : :11
00:53:43.052 : :12
00:57:04.920 : :13
01:01:36.943 : :14
01:05:54.699 : :15
01:07:55.237 : :16
01:11:19.149 : :17
01:15:32.653 : :18
01:21:12.826 : :19
01:28:24.756 : :20


-Время раздачи: по мере возможности
[Профиль] [ЛС]
Показать сообщения:    
Ответить на тему

Текущее время: 21-Окт 07:46

Часовой пояс: UTC + 3



Вы не можете начинать темы
Вы не можете отвечать на сообщения
Вы не можете редактировать свои сообщения
Вы не можете удалять свои сообщения
Вы не можете голосовать в опросах
Вы не можете прикреплять файлы к сообщениям
Вы не можете скачивать файлы