Гадкий я 3 в 3Д / Despicable Me 3 3D (2017, Eric Guillon, Kyle Balda, Pierre Coffin, BDRip by Ash61) Half OverUnder / Вертикальная анаморфная стереопара

Ответить на тему
 
Автор Сообщение

utermidai ®

Пол: Мужской

Стаж: 7 года

Сообщений: 642

Откуда: Ukraine

Создавать темы 08-Сен-2020 20:51

[Цитировать]


Информация о фильме:
Название: Гадкий я 3
Оригинальное название: Despicable Me 3
Страна: США
Студия: Universal Pictures, Illumination Entertainment
Слоган: «Такие разные близнецы»
Год выпуска: 14 июня 2017
Жанр: Фантастика, Боевик, Комедия, Приключения, Cемейный
Продолжительность: 01:29:41
Перевод: Профессиональный дублированный (Лицензия)
Режиссер: Эрик Гуильон, Кайл Балда, Пьер Коффан

Роли озвучили (дублировали):
Gru / Dru Стив Карелл (Сергей Бурунов)
Lucy Кристен Уиг (Ирина Киреева)
Balthazar Bratt Трей Паркер (Станислав Тикунов)
Margo Миранда Косгров (Элиза Мартиросова)
Edith Дэна Гайер (Василиса Эльдарова)
Agnes Нев Шаррел (Василиса Савкина)
Minions / Museum Director / Additional Voice Пьер Коффан (Алексей Войтюк)
Fritz / Silas Ramsbottom Стив Куган (Андрей Казанцев, Алексей Колган)
Gru's Mom Джули Эндрюс (Ёла Санько)
Valerie Da Vinci Дженни Слейт (Алена Фалалеева)
TV Show Host / Scar-Faced Man Майкл Битти (Даниил Эльдаров)
Clive the Robot Энди Найман (Иван Калинин) О фильме:
Грядет третье пришествие.
Многодетный суперагент, роковая красотка и бессмертные миньоны на подходе.
Готовьтесь. Они будут править миром.-- Информация о видео-файле:
Качество: BDRip (с BD EUR)
Контейнер: MKV
Формат 3D: Half OverUnder / Вертикальная анаморфная стереопара
Порядок ракурсов: левый ракурс первый
Видео: AVC / 1920х1080p / 23,976 fps / 11.5 Mbps
Аудио:
#1 - AC3 / 48 KHz / 5.1 ch / 640 Kbps (Дубляж - BD CEE)
#2 - Украинский / AC3 / 48 KHz / 2 ch / 192 Kbps (Дубляж - Line) (Спасибо Hurtom!)
#3 - Английский / AC3 / 48 KHz / 5.1 ch / 640 Kbps (Original - BD 3D)
Субтитры(SRT):
Вшитые (softsub):
#1 - Русские Форсированные (включены по умолчанию)
#2 - Русские Полные
#3 - Украинские Форсированные (Ash61)
#4 - English Full
#5 - English SDH
Внешние (UTF-8):
#1 - Русские Форсированные (включены по умолчанию)
#2 - Русские Полные
#3 - Украинские Форсированные (Ash61) Знаете ли вы, что...

Знаете ли вы, что...

Стив Карелл заявил, что «Гадкий я 3» может оказаться последним фильмом, в котором он озвучивает Грю. Актёр, правда, добавил, что не против озвучить этот персонаж в последующих сиквелах, но только в эпизодической роли.
Озвучившую Агнес актрису Элси Фишер заменила Nev Scharrel, так как с возрастом у Фишер изменился голос.
Фильм снят в анаморфированном формате «Синемаскоп» (соотношение сторон экрана 2,35:1).
В мультфильме 2013 года «Гадкий я 2» злодея озвучил актёр по имени Бенджамин Брэтт.
В этом фильме Балтазаром Брэттом зовут самого злодея.
Антагонистом в фильме является Бальтазар Брэтт.
До него антагонистами в фильмах франшизы «Гадкий я» были Скарлет Оверкилл, говорившая голосом Сандры Буллок, Вектор, которого озвучил Джейсон Сигел, и Эль Мачо, озвученный Бенджамином Брэттом.
Mедиа инфо

M/инфо

General
Unique ID : 191606711762022106929599965503654111339 (0x90261C416464DBEB8E91BD3D28EEA86B)
Complete name : D:\DespicableMe3(2017)3D-halfOU(Ash61)\DespicableMe3(2017)3D-halfOU(Ash61).mkv
Format : Matroska
Format version : Version 2
File size : 8.13 GiB
Duration : 1 h 29 min
Overall bit rate : 13.0 Mb/s
Movie name : Гадкий я 3 / Despicable Me 3 (2017) в 3Д
Encoded date : UTC 2017-10-28 10:51:09
Writing application : mkvmerge v5.8.0 ('No Sleep / Pillow') built on Sep 2 2012 15:37:04
Writing library : libebml v1.2.3 + libmatroska v1.3.0
Video
ID : 1
Format : AVC
Format/Info : Advanced Video Codec
Format profile : High@L4.1
Format settings, CABAC : Yes
Format settings, RefFrames : 4 frames
Codec ID : V_MPEG4/ISO/AVC
Duration : 1 h 29 min
Bit rate : 11.5 Mb/s
Width : 1 920 pixels
Height : 1 080 pixels
Display aspect ratio : 16:9
Frame rate mode : Constant
Frame rate : 23.976 (24000/1001) FPS
Color space : YUV
Chroma subsampling : 4:2:0
Bit depth : 8 bits
Scan type : Progressive
Bits/(Pixel*Frame) : 0.231
Stream size : 7.05 GiB (87%)
Title : BDRip by Ash61
Writing library : x264 core 146 r2538 121396c
Encoding settings : cabac=1 / ref=4 / deblock=1:-3:-3 / analyse=0x3:0x113 / me=umh / subme=10 / psy=1 / psy_rd=1.00:0.00 / mixed_ref=1 / me_range=32 / chroma_me=1 / trellis=2 / 8x8dct=1 / cqm=0 / deadzone=21,11 / fast_pskip=0 / chroma_qp_offset=-2 / threads=12 / lookahead_threads=2 / sliced_threads=0 / nr=0 / decimate=0 / interlaced=0 / bluray_compat=0 / constrained_intra=0 / bframes=9 / b_pyramid=2 / b_adapt=2 / b_bias=0 / direct=3 / weightb=1 / open_gop=0 / weightp=2 / keyint=250 / keyint_min=23 / scenecut=40 / intra_refresh=0 / rc=2pass / mbtree=0 / bitrate=11500 / ratetol=1.0 / qcomp=0.70 / qpmin=0 / qpmax=69 / qpstep=4 / cplxblur=20.0 / qblur=0.5 / frame-packing=4 / ip_ratio=1.40 / pb_ratio=1.30 / aq=1:0.70
Language : English
Default : Yes
Forced : No
Audio #1
ID : 2
Format : AC-3
Format/Info : Audio Coding 3
Format settings, Endianness : Big
Codec ID : A_AC3
Duration : 1 h 29 min
Bit rate mode : Constant
Bit rate : 640 kb/s
Channel(s) : 6 channels
Channel positions : Front: L C R, Side: L R, LFE
Sampling rate : 48.0 kHz
Frame rate : 31.250 FPS (1536 SPF)
Bit depth : 16 bits
Compression mode : Lossy
Stream size : 411 MiB (5%)
Title : Дубляж - BD CEE
Language : Russian
Service kind : Complete Main
Default : Yes
Forced : No
Audio #2
ID : 3
Format : AC-3
Format/Info : Audio Coding 3
Format settings, Endianness : Big
Codec ID : A_AC3
Duration : 1 h 29 min
Bit rate mode : Constant
Bit rate : 192 kb/s
Channel(s) : 2 channels
Channel positions : Front: L R
Sampling rate : 48.0 kHz
Frame rate : 31.250 FPS (1536 SPF)
Bit depth : 16 bits
Compression mode : Lossy
Stream size : 123 MiB (1%)
Title : Дубляж - Line (моно)
Language : Ukrainian
Service kind : Complete Main
Default : No
Forced : No
Audio #3
ID : 4
Format : AC-3
Format/Info : Audio Coding 3
Format settings, Endianness : Big
Codec ID : A_AC3
Duration : 1 h 29 min
Bit rate mode : Constant
Bit rate : 640 kb/s
Channel(s) : 6 channels
Channel positions : Front: L C R, Side: L R, LFE
Sampling rate : 48.0 kHz
Frame rate : 31.250 FPS (1536 SPF)
Bit depth : 16 bits
Compression mode : Lossy
Stream size : 411 MiB (5%)
Title : Original
Language : English
Service kind : Complete Main
Default : No
Forced : No
Text #1
ID : 5
Format : UTF-8
Codec ID : S_TEXT/UTF8
Codec ID/Info : UTF-8 Plain Text
Title : Форсированные
Language : Russian
Default : Yes
Forced : No
Text #2
ID : 6
Format : UTF-8
Codec ID : S_TEXT/UTF8
Codec ID/Info : UTF-8 Plain Text
Title : Полные
Language : Russian
Default : No
Forced : No
Text #3
ID : 7
Format : UTF-8
Codec ID : S_TEXT/UTF8
Codec ID/Info : UTF-8 Plain Text
Title : Форсированные
Language : Ukrainian
Default : No
Forced : No
Text #4
ID : 8
Format : UTF-8
Codec ID : S_TEXT/UTF8
Codec ID/Info : UTF-8 Plain Text
Title : Full
Language : English
Default : No
Forced : No
Text #5
ID : 9
Format : UTF-8
Codec ID : S_TEXT/UTF8
Codec ID/Info : UTF-8 Plain Text
Title : SDH
Language : English
Default : No
Forced : No
Menu
00:00:00.000 : :1
00:03:06.102 : :2
00:07:57.975 : :3
00:11:12.836 : :4
00:16:15.764 : :5
00:20:07.497 : :6
00:24:07.988 : :7
00:28:57.067 : :8
00:32:55.346 : :9
00:39:01.838 : :10
00:42:44.186 : :11
00:46:47.179 : :12
00:50:55.635 : :13
00:56:12.077 : :14
01:00:02.264 : :15
01:05:41.228 : :16
01:10:14.542 : :17
01:14:33.760 : :18
01:19:29.720 : :19
01:21:56.993 : :20


-Время раздачи: по мере возможности
[Профиль] [ЛС]
Показать сообщения:    
Ответить на тему

Текущее время: 16-Янв 00:37

Часовой пояс: UTC + 3



Вы не можете начинать темы
Вы не можете отвечать на сообщения
Вы не можете редактировать свои сообщения
Вы не можете удалять свои сообщения
Вы не можете голосовать в опросах
Вы не можете прикреплять файлы к сообщениям
Вы не можете скачивать файлы