Рио 3Д / Rio 3D (2011, Carlos Saldanha, BDRip 1080p) Half OverUnder / Вертикальная анаморфная стереопара

Ответить на тему
Статистика раздачи
Нет
   
 
Автор Сообщение

utermidai ®

Стаж: 6 года 9 месяца

Сообщений: 627

Откуда: Ukraine

Создавать темы 11-Сен-2020 07:42

[Цитировать]


Информация о фильме:
Название: Рио
Оригинальное название: Rio
Страна: США, Канада, Бразилия
Производство: Blue Sky Studios, 20th Century Fox Animation, Fox Filmes do Brazil, O2 Filmes
Год выпуска: 22 марта 2011
Слоган: «Он отправляется в самое удивительное и волшебное место на Земле... домой»
Жанр: Мюзикл, Комедия, Приключения
Продолжительность: 01:26:38
Перевод: Профессиональный дублированный
Режиссер: Carlos Saldanha

Роли озвучили (дублировали):
Blu Джесси Айзенберг (Павел Деревянко)
Jewel Энн Хэтэуэй (Татьяна Шилина)
Nico Джейми Фокс (Илья Колесников)
Linda София Скарпа Салданья (Марианна Шульц)
Pedro Уилл Ай Эм (Аркадий Джем)
Tulio Родриго Санторо (Денис Беспалый)
Armando Дэви Виера (Александр Котов)
Type Джефф Гарджи (Сергей Быстрицкий)
Mother Bird Карен Дишер
Marcel Карлос Понсе (Александр Груздев)
Rafael Джордж Лопез (Никита Прозоровский)
Nigel Джемейн Клемент (Олег Куценко)
Truck Driver Джейсон Фриччион
Silvio Бернардо де Пауло (Александр Коврижных)
Eve Бебел Жилберту (Ирина Савина) О фильме:
Попугай-зануда оставляет свою уютную сытую жизнь в клетке и из Миннесоты отправляется в Рио-де-Жанейро, город грез всех и каждого.
Неминуемые встречи, препятствия, опасности и любовь к последней представительнице его рода заставляют нашего героя по-другому посмотреть на мир и из скучного домоседа превратиться в милого симпатягу, узнавшего цену дружбе и смелости.-- Информация о видео-файле:
Качество: BDRip
Контейнер: MKV
Формат 3D: Half OverUnder / Вертикальная анаморфная стереопара
Порядок ракурсов: левый ракурс первый
Видео кодек: x264
Аудио кодек: AC3
Видео: AVC / 1920х1080p / 23,976 fps / 5695 kbps
Аудио:
#1 - Русский / AC3 / 5.1 / 48 kHz / 640 kbps / 16 bit (Дубляж, лицензия)
#2 - Українська / AC3 / 5.1 / 48 kHz / 384 kbps / 16 bit (Дубляж, ліцензія)
#3 - Английский / AC3 / 5.1 / 48 kHz / 640 kbps / 16 bit (Оригинал)
Субтитры(UTF-8):
Внешние(srt)
#1 - Русские (форсированные)
#2 - Русские (полные)
#3 - Английские
#4 - Французские
#5 - Испанские
#6 - Португальские
#7 - Голландские
#8 - Шведские Знаете ли вы, что...

Знаете ли вы, что...

18 марта 2011 года английский певец и автор песен Тайо Круз загрузил на канал Youtube музыкальный клип «Telling the World» в качестве саундтрека
Официальный саундтрек был выпущен в США компанией 20th Century Fox 29 марта 2011 года.
В бразильской версии мультфильма некоторые песни были исполнены на португальском языке.
В русской версии мультфильма вместо песни «Fly Love», исполняемой Джейми Фоксом на английском языке, звучит песня «Ararinha», в исполнении Карлиноса Брауна на португальском языке.
Mедиа инфо

M/инфо

General
Complete name : D:\Rio.3D.2011.BD3DRip-AVC.Half.OU.x264.AC3.3D-RuGroup\Rio.3D.2011.BD3DRip-AVC.Half.OU.x264.AC3.3D-RuGroup.mkv
Format : Matroska
File size : 5.03 GiB
Duration : 1h 35mn
Overall bit rate : 7 509 Kbps
Movie name : Rio.3D.2011.BD3DRip-AVC.Half.OU.x264.AC3.3D-RuGroup
Encoded date : UTC 2011-07-15 08:25:37
Writing application : mkvmerge v2.9.9 ('Tutu') built on Nov 25 2009 21:13:32
Writing library : libebml v0.7.9 + libmatroska v0.8.1
Video
ID : 1
Format : AVC
Format/Info : Advanced Video Codec
Format profile : High@L4.1
Format settings, CABAC : Yes
Format settings, ReFrames : 4 frames
Codec ID : V_MPEG4/ISO/AVC
Duration : 1h 35mn
Bit rate : 5 695 Kbps
Width : 1 920 pixels
Height : 1 080 pixels
Display aspect ratio : 16:9
Frame rate : 23.976 fps
Original frame rate : 25.000 fps
Color space : YUV
Chroma subsampling : 4:2:0
Bit depth : 8 bits
Scan type : Progressive
Bits/(Pixel*Frame) : 0.115
Stream size : 3.82 GiB (76%)
Title : Rio.3D.2011.BD3DRip-AVC.Half.OU.x264.AC3.3D-RuGroup
Writing library : x264 core 113 r1884 7313bb5
Encoding settings : cabac=1 / ref=4 / deblock=1:-1:-1 / analyse=0x3:0x113 / me=umh / subme=10 / psy=1 / psy_rd=1.00:0.15 / mixed_ref=1 / me_range=16 / chroma_me=1 / trellis=2 / 8x8dct=1 / cqm=0 / deadzone=21,11 / fast_pskip=1 / chroma_qp_offset=-3 / threads=3 / sliced_threads=0 / nr=0 / decimate=1 / interlaced=0 / constrained_intra=0 / bframes=6 / b_pyramid=2 / b_adapt=2 / b_bias=0 / direct=3 / weightb=1 / open_gop=0 / weightp=2 / keyint=250 / keyint_min=25 / scenecut=40 / intra_refresh=0 / rc_lookahead=60 / rc=crf / mbtree=1 / crf=18.0 / qcomp=0.60 / qpmin=0 / qpmax=51 / qpstep=4 / ip_ratio=1.40 / aq=1:1.00
Audio #1
ID : 2
Format : AC-3
Format/Info : Audio Coding 3
Mode extension : CM (complete main)
Codec ID : A_AC3
Duration : 1h 35mn
Bit rate mode : Constant
Bit rate : 640 Kbps
Channel(s) : 6 channels
Channel positions : Front: L C R, Side: L R, LFE
Sampling rate : 48.0 KHz
Bit depth : 16 bits
Compression mode : Lossy
Stream size : 439 MiB (9%)
Title : Русский (Дубляж)
Language : Russian
Audio #2
ID : 3
Format : AC-3
Format/Info : Audio Coding 3
Mode extension : CM (complete main)
Codec ID : A_AC3
Duration : 1h 35mn
Bit rate mode : Constant
Bit rate : 384 Kbps
Channel(s) : 6 channels
Channel positions : Front: L C R, Side: L R, LFE
Sampling rate : 48.0 KHz
Bit depth : 16 bits
Compression mode : Lossy
Stream size : 264 MiB (5%)
Title : Українська (Дубляж)
Language : Ukrainian
Audio #3
ID : 4
Format : AC-3
Format/Info : Audio Coding 3
Mode extension : CM (complete main)
Codec ID : A_AC3
Duration : 1h 35mn
Bit rate mode : Constant
Bit rate : 640 Kbps
Channel(s) : 6 channels
Channel positions : Front: L C R, Side: L R, LFE
Sampling rate : 48.0 KHz
Bit depth : 16 bits
Compression mode : Lossy
Stream size : 439 MiB (9%)
Title : English
Language : English
Menu
00:00:00.000 : :Chapter01
00:06:34.853 : :Chapter02
00:12:16.569 : :Chapter03
00:16:13.139 : :Chapter04
00:21:29.497 : :Chapter05
00:23:46.008 : :Chapter06
00:28:57.194 : :Chapter07
00:34:11.841 : :Chapter08
00:36:53.461 : :Chapter09
00:39:27.615 : :Chapter10
00:43:17.762 : :Chapter12
00:45:48.454 : :Chapter13
00:50:03.083 : :Chapter14
00:52:58.217 : :Chapter15
00:57:37.287 : :Chapter16
01:00:49.646 : :Chapter17
01:03:39.691 : :Chapter18
01:07:57.365 : :Chapter19
01:11:47.512 : :Chapter20
01:15:32.027 : :Chapter21
01:19:40.943 : :Chapter22
01:21:19.333 : :Chapter23
01:23:43.477 : :Chapter24


-Время раздачи: по мере возможности
[Профиль] [ЛС]
Показать сообщения:    
Ответить на тему

Текущее время: 21-Окт 07:58

Часовой пояс: UTC + 3



Вы не можете начинать темы
Вы не можете отвечать на сообщения
Вы не можете редактировать свои сообщения
Вы не можете удалять свои сообщения
Вы не можете голосовать в опросах
Вы не можете прикреплять файлы к сообщениям
Вы не можете скачивать файлы