Том Сойер / Tom Sawyer (2011, Hermine Huntgeburth, BDRip 1080p) [приключения, семейный] Dub + Deu

Ответить на тему
Статистика раздачи
Нет
   
 
Автор Сообщение

utermidai ®

Стаж: 6 года 9 месяца

Сообщений: 627

Откуда: Ukraine

Создавать темы 14-Сен-2020 10:23

[Цитировать]


Информация о фильме:
Название: Том Сойер
Оригинальное название: Tom Sawyer
Страна: Германия
Производство: ARD Degeto Film
ARTE, Bayerischer Rundfunk (BR), HI Film Productions, Majestic Filmproduktion, Neue Schonhauser Filmproduktion, Norddeutscher Rundfunk (NDR)
Год выпуска: 30 сентября 2011
Жанр: Приключения, Семейный
Продолжительность: 01:50:47
Перевод: Дублированный
Субтитры: Отсутствуют
Режиссер: Гермина Хунтгебурт
Продюсер: Борис Шёнфельдер, Корнелиус Конрад, Бенжамин Херрманн
В ролях:
Луис Хоффман Том Сойер
Леон Зайдель Гекльберри Финн
Хайке Макач Тётя Полли
Бенно Фюрманн индеец Джо
Йоахим Круль Мэфф Поттер
Магали Грейф, Петер Ломайер, Хиннерк Шёнеманн, Сильвестр Грот, Томас Шмаузер, Джэймс Батлер
--Описание:
Двое неразлучных друзей Том Сойер и Гекльберри Финн, беззаботно проживают на берегу красивой реки Миссисипи.
Они проказники и забияки, которые очень часто любят подшутить даже над взрослыми, не считая мелких "злодеяний".
Невероятная любопытничать ребят и огромный талант совать нос не в свои дела, ночью приводит их на городское кладбище, там они становятся свидетелями таинственного преступления, с которого и начинаются невероятные приключения…. Файл:
Качество видео: BDRip
Контейнер: MKV
Видеокодек: MPEG-4 AVC/H.264
Аудиокодек: AC-3, DTS
Видео: 1920x816, 24.000 fps, ~16,9 mb/s
Аудио:
#1 - Русский / AC-3 / 448 kbps - 6 каналов / 16 bit / L, C, R, l, r + LFE
#2 - Немецкий DTS / 1510 kbps / 6 каналов / 24 bit / L, C, R, l + LFE Mедиа инфо

Mедиа инфо

Формат : Matroska
Версия формата : Version 2
Размер файла : 14,5 Гбайт
Продолжительность : 1 ч. 50 м.
Общий поток : 18,8 Мбит/сек
Название фильма : <Budweiser>
Дата кодирования : UTC 2012-06-11 00:14:23
Программа кодирования : mkvmerge v4.2.0 ('No Talking') built on Jul 28 2010 18:38:23
Библиотека кодирования : libebml v1.0.0 + libmatroska v1.0.0
Видео
Идентификатор : 1
Формат : AVC
Формат/Информация : Advanced Video Codec
Профиль формата : High@L4.1
Параметр CABAC формата : Да
Параметр ReFrames формата : 5 кадров
Идентификатор кодека : V_MPEG4/ISO/AVC
Продолжительность : 1 ч. 50 м.
Битрейт : 16,9 Мбит/сек
Ширина : 1920 пикселей
Высота : 816 пикселей
Соотношение сторон : 2,35:1
Частота кадров : 24,000 кадра/сек
Цветовое пространство : YUV
Субдискретизация насыщенности : 4:2:0
Битовая глубина : 8 бит
Тип развёртки : Прогрессивная
Бит/(Пиксели*Кадры) : 0.448
Размер потока : 12,7 Гбайт (88%)
Библиотека кодирования : x264 core 120 r2145 748fe16
Настройки программы : cabac=1 / ref=5 / deblock=1:-3:-3 / analyse=0x3:0x133 / me=umh / subme=10 / psy=1 / psy_rd=1.00:0.10 / mixed_ref=1 / me_range=64 / chroma_me=1 / trellis=2 / 8x8dct=1 / cqm=0 / deadzone=21,11 / fast_pskip=0 / chroma_qp_offset=-3 / threads=6 / sliced_threads=0 / nr=0 / decimate=0 / interlaced=0 / bluray_compat=0 / constrained_intra=0 / bframes=8 / b_pyramid=2 / b_adapt=2 / b_bias=0 / direct=3 / weightb=1 / open_gop=0 / weightp=2 / keyint=360 / keyint_min=2 / scenecut=40 / intra_refresh=0 / rc=2pass / mbtree=0 / bitrate=16850 / ratetol=1.0 / qcomp=0.70 / qpmin=0 / qpmax=69 / qpstep=4 / cplxblur=20.0 / qblur=0.5 / ip_ratio=1.40 / pb_ratio=1.30 / aq=1:1.00
Язык : German
Default : Да
Forced : Нет
Аудио #1
Идентификатор : 2
Формат : AC-3
Формат/Информация : Audio Coding 3
Расширение режима : CM (complete main)
Идентификатор кодека : A_AC3
Продолжительность : 1 ч. 50 м.
Вид битрейта : Постоянный
Битрейт : 448 Кбит/сек
Каналы : 6 каналов
Расположение каналов : Front: L C R, Side: L R, LFE
Частота : 48,0 КГц
Битовая глубина : 16 бит
Метод сжатия : С потерями
Размер потока : 355 Мбайт (2%)
Язык : Russian
Default : Да
Forced : Нет
Аудио #2
Идентификатор : 3
Формат : DTS
Формат/Информация : Digital Theater Systems
Идентификатор кодека : A_DTS
Продолжительность : 1 ч. 50 м.
Вид битрейта : Постоянный
Битрейт : 1510 Кбит/сек
Каналы : 6 каналов
Расположение каналов : Front: L C R, Side: L R, LFE
Частота : 48,0 КГц
Битовая глубина : 24 бит
Метод сжатия : С потерями
Размер потока : 1,17 Гбайт (8%)
Язык : German
Default : Нет
Forced : Нет

-Время раздачи: по мере возможности -
[Профиль] [ЛС]
Показать сообщения:    
Ответить на тему

Текущее время: 21-Окт 07:23

Часовой пояс: UTC + 3



Вы не можете начинать темы
Вы не можете отвечать на сообщения
Вы не можете редактировать свои сообщения
Вы не можете удалять свои сообщения
Вы не можете голосовать в опросах
Вы не можете прикреплять файлы к сообщениям
Вы не можете скачивать файлы