Человек-паук: Через вселенные в 3Д / Spider-Man: Into the Spider-Verse 3D (2018, Bob Persichetti, Peter Ramsey, Rodney Rothman, BDRip by Ash61) Half OverUnder / Вертикальная анаморфная стереопара

Ответить на тему
Статистика раздачи
Нет
   
 
Автор Сообщение

utermidai ®

Стаж: 6 года 10 месяца

Сообщений: 637

Откуда: Ukraine

Создавать темы 10-Ноя-2020 00:05

[Цитировать]


Информация о фильме:
Название: Человек-паук: Через вселенные
Оригинальное название: Spider-Man: Into the Spider-Verse
Страна: США
Производство: Columbia Pictures, Marvel, Sony Pictures Animation, Pascal Pictures
Год выпуска: 6 декабря 2018
Слоган: «Войдите во вселенную, где не один носит маску»
Жанр: Мультфильм, Фантастика, Боевик, Приключения, Семейный
Продолжительность: 01:56:50
Перевод: Профессиональный дублированный (лицензия)
Режиссер: Боб Персичетти, Питер Рэмзи, Родни Ротман

Роли озвучили (дублировали):
Miles Morales Шамеик Мур (Иван Непомнящий)
Peter B. Parker Джейк Джонсон (Сергей Смирнов)
Gwen Stacy Хейли Стайнфелд (Дана Соколова)
Uncle Aaron Махершала Али (Илья Исаев)
Jefferson Davis Брайан Тайри Генри (Денис Беспалый)
Aunt May Лили Томлин (Ирина Пономарева)
Rio Morales Луна Лорен Велес (Елена Шульман)
Mary Jane Зои Кравиц (Варвара Чабан)
Spider-Ham Джон Малэйни (Сергей Стиллавин)
Peni Parker Кимико Гленн (Александра Курагина)
Spider-Man Noir Николас Кейдж (Алексей Мясников)
Doc Ock Кэтрин Хан (Татьяна Шитова)
Wilson Fisk Лив Шрайбер (Гоша Куценко)
Peter Parker Крис Пайн (Филипп Лебедев)
Interesting Person #1 Оскар Айзек (Сергей Пономарёв)
Stan Стэн Ли (Владимир Левашёв)
Vanessa Fisk Лэйк Белл (Елена Ивасишина) О фильме:
Мы всё знаем о Питере Паркере. Он спас город, влюбился, а потом спасал город снова и снова…
Но все это — в нашем измерении. А что если в результате работы гигантского коллайдера откроется окно из одного измерения в другое? Найдется ли в нем свой Человек-паук? И как он будет выглядеть?
Приготовьтесь к тому, что в разных вселенных могут быть разные Люди-пауки и однажды им придется собраться вместе для борьбы с почти непобедимым врагом.-- Информация о видео-файле:
Качество: BDRip (с BD EUR)
Контейнер: MKV
Формат 3D: Half OverUnder / Вертикальная анаморфная стереопара
Порядок ракурсов: левый ракурс первый
Видео: AVC / 1920х1080p / 23,976 fps / 16.0 Mbps
Аудио:
#1 - Русский / AC3 / 48 KHz / 5.1 ch / 640 Kbps (Дубляж - BD CEE)
#2 - Украинский / AC3 / 48 KHz / 5.1 ch / 640 Kbps (Дубляж - BD CEE)
#3 - Английский / AC3 / 48 KHz / 5.1 ch / 640 Kbps (Original - BD 3D)
Субтитры(SRT):
Вшитые (softsub):
#1 - Русские Форсированные (включены по умолчанию)
#2 - Русские Полные
#3 - Украинские Форсированные
#4 - Украинские Полные
#5 - English Full
#6 - English SDH
Внешние(UTF-8):
#1 - Русские Форсированные (включены по умолчанию)
#2 - Русские Полные
#3 - Украинские Форсированные Знаете ли вы, что...

Знаете ли вы, что...

Режиссёрский дебют аниматора Боба Персичетти.
Над анимацией трудилось 140 человек — это самая многочисленная команда аниматоров, которую когда-либо использовала компания Sony Animation Pictures.
Mедиа инфо

M/инфо

General
Unique ID : 171892901066385317616965026841191672589 (0x81515E5894A9974F9161562A39B26B0D)
Complete name : J:\Spider-Man.IntoTheSpider-Verse(2018)3D-halfOU(Ash61)\Spider-Man.IntoTheSpider-Verse(2018)3D-halfOU(Ash61).mkv
Format : Matroska
Format version : Version 2
File size : 14.6 GiB
Duration : 1h 56mn
Overall bit rate : 17.9 Mbps
Movie name : Человек-паук: Через вселенные / Spider-Man: Into the Spider-Verse (2018) in 3D
Encoded date : UTC 2019-04-11 22:08:07
Writing application : mkvmerge v5.8.0 ('No Sleep / Pillow') built on Sep 2 2012 15:37:04
Writing library : libebml v1.2.3 + libmatroska v1.3.0
Video
ID : 1
Format : AVC
Format/Info : Advanced Video Codec
Format profile : High@L4.1
Format settings, CABAC : Yes
Format settings, ReFrames : 4 frames
Codec ID : V_MPEG4/ISO/AVC
Duration : 1h 56mn
Bit rate : 16.0 Mbps
Width : 1 920 pixels
Height : 1 080 pixels
Display aspect ratio : 16:9
Frame rate mode : Constant
Frame rate : 23.976 (24000/1001) fps
Color space : YUV
Chroma subsampling : 4:2:0
Bit depth : 8 bits
Scan type : Progressive
Bits/(Pixel*Frame) : 0.322
Stream size : 12.8 GiB (87%)
Title : BDRip by Ash61
Writing library : x264 core 146 r2538 121396c
Encoding settings : cabac=1 / ref=4 / deblock=1:-3:-3 / analyse=0x3:0x113 / me=umh / subme=10 / psy=1 / psy_rd=1.00:0.00 / mixed_ref=1 / me_range=32 / chroma_me=1 / trellis=2 / 8x8dct=1 / cqm=0 / deadzone=21,11 / fast_pskip=0 / chroma_qp_offset=-2 / threads=12 / lookahead_threads=3 / sliced_threads=0 / nr=0 / decimate=0 / interlaced=0 / bluray_compat=0 / constrained_intra=0 / bframes=10 / b_pyramid=2 / b_adapt=2 / b_bias=0 / direct=3 / weightb=1 / open_gop=0 / weightp=2 / keyint=250 / keyint_min=23 / scenecut=40 / intra_refresh=0 / rc_lookahead=60 / rc=2pass / mbtree=0 / bitrate=16000 / ratetol=1.0 / qcomp=0.70 / qpmin=0 / qpmax=69 / qpstep=4 / cplxblur=20.0 / qblur=0.5 / vbv_maxrate=40000 / vbv_bufsize=30000 / nal_hrd=none / filler=0 / frame-packing=4 / ip_ratio=1.40 / pb_ratio=1.30 / aq=1:0.70
Language : English
Default : Yes
Forced : No
Audio #1
ID : 2
Format : AC-3
Format/Info : Audio Coding 3
Mode extension : CM (complete main)
Format settings, Endianness : Big
Codec ID : A_AC3
Duration : 1h 56mn
Bit rate mode : Constant
Bit rate : 640 Kbps
Channel(s) : 6 channels
Channel positions : Front: L C R, Side: L R, LFE
Sampling rate : 48.0 KHz
Frame rate : 31.250 fps (1536 spf)
Compression mode : Lossy
Stream size : 535 MiB (4%)
Title : Дубляж (BD CEE)
Language : Russian
Default : Yes
Forced : No
Audio #2
ID : 3
Format : AC-3
Format/Info : Audio Coding 3
Mode extension : CM (complete main)
Format settings, Endianness : Big
Codec ID : A_AC3
Duration : 1h 56mn
Bit rate mode : Constant
Bit rate : 640 Kbps
Channel(s) : 6 channels
Channel positions : Front: L C R, Side: L R, LFE
Sampling rate : 48.0 KHz
Frame rate : 31.250 fps (1536 spf)
Compression mode : Lossy
Stream size : 535 MiB (4%)
Title : Дубляж (BD CEE)
Language : Ukrainian
Default : No
Forced : No
Audio #3
ID : 4
Format : AC-3
Format/Info : Audio Coding 3
Mode extension : CM (complete main)
Format settings, Endianness : Big
Codec ID : A_AC3
Duration : 1h 56mn
Bit rate mode : Constant
Bit rate : 640 Kbps
Channel(s) : 6 channels
Channel positions : Front: L C R, Side: L R, LFE
Sampling rate : 48.0 KHz
Frame rate : 31.250 fps (1536 spf)
Compression mode : Lossy
Stream size : 535 MiB (4%)
Title : Original
Language : English
Default : No
Forced : No
Text #1
ID : 5
Format : UTF-8
Codec ID : S_TEXT/UTF8
Codec ID/Info : UTF-8 Plain Text
Title : Форсированные
Language : Russian
Default : Yes
Forced : No
Text #2
ID : 6
Format : UTF-8
Codec ID : S_TEXT/UTF8
Codec ID/Info : UTF-8 Plain Text
Title : Полные
Language : Russian
Default : No
Forced : No
Text #3
ID : 7
Format : UTF-8
Codec ID : S_TEXT/UTF8
Codec ID/Info : UTF-8 Plain Text
Title : Форсированные
Language : Ukrainian
Default : No
Forced : No
Text #4
ID : 8
Format : UTF-8
Codec ID : S_TEXT/UTF8
Codec ID/Info : UTF-8 Plain Text
Title : Полные
Language : Ukrainian
Default : No
Forced : No
Text #5
ID : 9
Format : UTF-8
Codec ID : S_TEXT/UTF8
Codec ID/Info : UTF-8 Plain Text
Title : Full
Language : English
Default : No
Forced : No
Text #6
ID : 10
Format : UTF-8
Codec ID : S_TEXT/UTF8
Codec ID/Info : UTF-8 Plain Text
Title : SDH
Language : English
Default : No
Forced : No
Menu
00:00:00.000 : :1
00:09:03.793 : :2
00:14:04.717 : :3
00:18:51.712 : :4
00:29:39.027 : :5
00:34:14.635 : :6
00:40:34.431 : :7
00:44:22.826 : :8
00:48:06.884 : :9
00:58:45.855 : :10
01:06:04.460 : :11
01:09:55.481 : :12
01:20:00.002 : :13
01:24:54.922 : :14
01:33:33.399 : :15
01:55:26.918 : :16


-Время раздачи: по мере возможности
[Профиль] [ЛС]
Показать сообщения:    
Ответить на тему

Текущее время: 01-Дек 20:44

Часовой пояс: UTC + 3



Вы не можете начинать темы
Вы не можете отвечать на сообщения
Вы не можете редактировать свои сообщения
Вы не можете удалять свои сообщения
Вы не можете голосовать в опросах
Вы не можете прикреплять файлы к сообщениям
Вы не можете скачивать файлы