ХБ / ХБ (Егор Баранов) [2013, Скетчком, TVRip]

Ответить на тему
 
Автор Сообщение

Enigmatik ®

Пол: Мужской

Стаж: 7 года 11 месяца

Сообщений: 1138

Откуда: ✔ Оттуда ✔

Создавать темы 03-Янв-2014 19:52

[Цитировать]

ХБ / ХБ
Год выпуска: 2013
Страна: Россия
Жанр: Скетчком
Продолжительность: ~23 минуты серия
Перевод: Не требуется
Русские субтитры: нет
Режиссер: Егор Баранов
Описание: ХБ» - комедийная программа с участием Гарика Харламова и Тимура Батрутдинова, которая помогает молодым людям принимать правильные решения даже в самых сложных жизненных ситуациях, а также отличать Х от Б.
Мы думали, что «ХБ» - это просто очень смешная комедия. Но, посмотрев внимательно, мы поняли - это еще и очень полезная программа, она может и должна использоваться для профилактики самых разных правонарушений.
Гарик Харламов и Тимур Батдрудинов создали целую галерею надолго запоминающихся персонажей, каждый из которых способен навсегда отвратить молодого человека от самой мысли о плохом поведении.
Доп. информация: В ролях: Гарик Харламов, Тимур Батрутдинов
качество: TVRip
формат: AVI
Видео: XviD, 25 fps, 704x400, 1617 Кбит/с
Аудио: Русский (MP3, 48 kHz, 2ch, 192 Кбит/с)

Список выпусков/серий

1-17 из ?

MediaInfo

Video
ID : 0
Format : MPEG-4 Visual
Format profile : Advanced Simple@L5
Format settings, BVOP : Yes
Format settings, QPel : No
Format settings, GMC : No warppoints
Format settings, Matrix : Default (H.263)
Codec ID : XVID
Codec ID/Hint : XviD
Duration : 22mn 40s
Bit rate : 1 652 Kbps
Width : 704 pixels
Height : 400 pixels
Display aspect ratio : 16:9
Frame rate : 25.000 fps
Color space : YUV
Chroma subsampling : 4:2:0
Bit depth : 8 bits
Scan type : Progressive
Bits/(Pixel*Frame) : 0.235
Stream size : 268 MiB (89%)
Writing library : XviD 1.2.1 (UTC 2008-12-04)
Audio
ID : 1
Format : MPEG Audio
Format version : Version 1
Format profile : Layer 3
Codec ID : 55
Codec ID/Hint : MP3
Duration : 22mn 40s
Bit rate mode : Constant
Bit rate : 192 Kbps
Channel(s) : 2 channels
Sampling rate : 48.0 KHz
Stream size : 31.1 MiB (10%)
Alignment : Aligned on interleaves
Interleave, duration : 40 ms (1.00 video frame)
Interleave, preload duration : 504 ms
Writing library : LAME3.99r
Encoding settings : -m s -V 4 -q 2 -lowpass 18.6 -b 192

Скриншоты



[Профиль] [ЛС]
Показать сообщения:    
Ответить на тему

Текущее время: 26-Фев 21:56

Часовой пояс: UTC + 3



Вы не можете начинать темы
Вы не можете отвечать на сообщения
Вы не можете редактировать свои сообщения
Вы не можете удалять свои сообщения
Вы не можете голосовать в опросах
Вы не можете прикреплять файлы к сообщениям
Вы не можете скачивать файлы