Двойной удар / Double Impact (1991) BDRip 1080p | D, P, P2, A

Ответить на тему
Статистика раздачи
Нет
   
 
Автор Сообщение

Viktor59 ®

Стаж: 7 года 9 месяца

Сообщений: 894

Откуда: Измаил

Создавать темы 10-Ноя-2020 16:38

[Цитировать]

- Название: Двойной удар
Оригинальное название: Double Impact
Год выхода: 1991
Жанр: Боевик, криминал
Режиссер: Шелдон Леттич
В ролях: Жан-Клод Ван Дамм, Джеффри Льюис, Алонна Шоу, Коринна Эверсон, Филип Чань, Алан Скарф, Боло Йен, Энди Армстронг, Ву Фонг Ланг, Питер Малота-О фильме: Когда-то мафия из Гонконга жестоко и безжалостно расправилась с родителями братьев-близнецов Чеда и Алекса, которых чудом удалось спасти в давней кровавой перестрелке. Судьба раскидала братьев по разные стороны океана: один рос в Калифорнии, другой остался в Гонконге. И вот спустя 25 лет стараниями верного друга их погибших родителей два брата встречаются, чтобы заставить виновников того преступления сильно раскаяться в некогда содеянном.- -Страна: США
Студия: Metro-Goldwyn-Mayer
Продолжительность: 01:49:40
Перевод: профессиональный (дублированный), профессиональный (многоголосый), профессиональный (двухголосый), авторский (одноголосый, uncensored*)
Субтитры: русские, английские-Формат: MKV
Качество: BDRip 1080p
Видео: MPEG-4 AVC Video / 16400 kbps / 1920x1040 / 23,976 fps
Звук:
#01. Russian: DTS Audio / 1509 Kbps / 2 ch / 48 khz - Многоголосый (R5)
#02. Russian: DD Audio / 224 Kbps / 2 ch / 48 khz - Дубляж (Хлопушка)
#03. Russian: DD Audio / 192 Kbps / 2 ch / 48 khz - Многоголосый (ТНТ)
#04. Russian: DD Audio / 448 Kbps / 6 ch / 48 khz - Двухголосый (OPT)
#05. Russian: DD Audio / 192 Kbps / 2 ch / 48 khz - Двухголосый (НТВ+)
#06. Russian: DTS Audio / 1509 Kbps / 2 ch / 48 khz - Авторский (Гаврилов)
#07. Russian: DD Audio / 192 Kbps / 2 ch / 48 khz - Авторский (Горчаков)
#08. Russian: DD Audio / 384 Kbps / 2 ch / 48 khz - Авторский (Яроцкий)*
#09. Russian: DD Audio / 192 Kbps / 2 ch / 48 khz - VO (неизвестный)
#10. English: DTS Audio / 1509 Kbps / 2 ch / 48 khz - Оригинальный

MediaInfo

Format : Matroska
Format version : Version 4 / Version 2
File size : 17.8 GiB
Duration : 1 h 49 min
Overall bit rate : 23.2 Mb/s
Movie name : Dvojnoj udar.1991.BDRip.1080p
Encoded date : UTC 2018-04-23 13:07:16
Writing application : mkvmerge v6.5.0 ('Isn't she lovely') built on Oct 20 2013 12:50:05
Writing library : libebml v1.3.0 + libmatroska v1.4.1
Video
ID : 1
Format : AVC
Format/Info : Advanced Video Codec
Format profile : High@L4.1
Format settings, CABAC : Yes
Format settings, RefFrames : 4 frames
Codec ID : V_MPEG4/ISO/AVC
Duration : 1 h 49 min
Bit rate : 16.4 Mb/s
Width : 1 920 pixels
Height : 1 040 pixels
Display aspect ratio : 1.85:1
Frame rate mode : Constant
Frame rate : 23.976 (24000/1001) FPS
Color space : YUV
Chroma subsampling : 4:2:0
Bit depth : 8 bits
Scan type : Progressive
Bits/(Pixel*Frame) : 0.343
Stream size : 12.6 GiB (71%)
Title : BDRip -- STarankov
Writing library : x264 core 142 r2431 ac76440
Encoding settings : cabac=1 / ref=4 / deblock=1:-1:-1 / analyse=0x3:0x113 / me=umh / subme=10 / psy=1 / psy_rd=1.00:0.15 / mixed_ref=1 / me_range=32 / chroma_me=1 / trellis=2 / 8x8dct=1 / cqm=0 / deadzone=21,11 / fast_pskip=1 / chroma_qp_offset=-3 / threads=6 / lookahead_threads=1 / sliced_threads=0 / nr=0 / decimate=1 / interlaced=0 / bluray_compat=0 / constrained_intra=0 / bframes=8 / b_pyramid=2 / b_adapt=2 / b_bias=0 / direct=3 / weightb=1 / open_gop=0 / weightp=2 / keyint=230 / keyint_min=23 / scenecut=40 / intra_refresh=0 / rc_lookahead=40 / rc=crf / mbtree=0 / crf=19.6 / qcomp=0.60 / qpmin=0 / qpmax=69 / qpstep=4 / vbv_maxrate=40000 / vbv_bufsize=50000 / crf_max=0.0 / nal_hrd=none / filler=0 / ip_ratio=1.40 / pb_ratio=1.30 / aq=1:1.00
Language : English
Default : Yes
Forced : No
Audio #1
ID : 2
Format : DTS
Format/Info : Digital Theater Systems
Mode : 16
Format settings, Endianness : Big
Codec ID : A_DTS
Duration : 1 h 49 min
Bit rate mode : Constant
Bit rate : 1 509 kb/s
Channel(s) : 2 channels
Channel positions : Front: L R
Sampling rate : 48.0 kHz
Frame rate : 93.750 FPS (512 SPF)
Bit depth : 24 bits
Compression mode : Lossy
Stream size : 1.16 GiB (6%)
Title : MVO (R5)
Language : Russian
Default : Yes
Forced : No
Audio #2
ID : 3
Format : AC-3
Format/Info : Audio Coding 3
Mode : Dolby Digital
Format settings, Endianness : Big
Codec ID : A_AC3
Duration : 1 h 49 min
Bit rate mode : Constant
Bit rate : 224 kb/s
Channel(s) : 2 channels
Channel positions : Front: L R
Sampling rate : 48.0 kHz
Frame rate : 31.250 FPS (1536 SPF)
Bit depth : 16 bits
Compression mode : Lossy
Stream size : 176 MiB (1%)
Title : DUB (Хлопушка)
Language : Russian
Service kind : Complete Main
Default : No
Forced : No
Audio #3
ID : 4
Format : AC-3
Format/Info : Audio Coding 3
Mode : Dolby Digital
Format settings, Endianness : Big
Codec ID : A_AC3
Duration : 1 h 49 min
Bit rate mode : Constant
Bit rate : 192 kb/s
Channel(s) : 2 channels
Channel positions : Front: L R
Sampling rate : 48.0 kHz
Frame rate : 31.250 FPS (1536 SPF)
Bit depth : 16 bits
Compression mode : Lossy
Stream size : 151 MiB (1%)
Title : MVO (THT)
Language : Russian
Service kind : Complete Main
Default : No
Forced : No
Audio #4
ID : 5
Format : AC-3
Format/Info : Audio Coding 3
Format settings, Endianness : Big
Codec ID : A_AC3
Duration : 1 h 49 min
Bit rate mode : Constant
Bit rate : 448 kb/s
Channel(s) : 6 channels
Channel positions : Front: L C R, Side: L R, LFE
Sampling rate : 48.0 kHz
Frame rate : 31.250 FPS (1536 SPF)
Bit depth : 16 bits
Compression mode : Lossy
Stream size : 351 MiB (2%)
Title : DVO (OPT)
Language : Russian
Service kind : Complete Main
Default : No
Forced : No
Audio #5
ID : 6
Format : AC-3
Format/Info : Audio Coding 3
Format settings, Endianness : Big
Codec ID : A_AC3
Duration : 1 h 49 min
Bit rate mode : Constant
Bit rate : 192 kb/s
Channel(s) : 2 channels
Channel positions : Front: L R
Sampling rate : 48.0 kHz
Frame rate : 31.250 FPS (1536 SPF)
Bit depth : 16 bits
Compression mode : Lossy
Stream size : 151 MiB (1%)
Title : DVO (НТВ+)
Language : Russian
Service kind : Complete Main
Default : No
Forced : No
Audio #6
ID : 7
Format : DTS
Format/Info : Digital Theater Systems
Mode : 16
Format settings, Endianness : Big
Codec ID : A_DTS
Duration : 1 h 49 min
Bit rate mode : Constant
Bit rate : 1 509 kb/s
Channel(s) : 2 channels
Channel positions : Front: L R
Sampling rate : 48.0 kHz
Frame rate : 93.750 FPS (512 SPF)
Bit depth : 24 bits
Compression mode : Lossy
Stream size : 1.16 GiB (6%)
Title : AVO (Андрей Гаврилов)
Language : Russian
Default : No
Forced : No
Audio #7
ID : 8
Format : AC-3
Format/Info : Audio Coding 3
Format settings, Endianness : Big
Codec ID : A_AC3
Duration : 1 h 49 min
Bit rate mode : Constant
Bit rate : 192 kb/s
Channel(s) : 2 channels
Channel positions : Front: L R
Sampling rate : 48.0 kHz
Frame rate : 31.250 FPS (1536 SPF)
Bit depth : 16 bits
Compression mode : Lossy
Stream size : 151 MiB (1%)
Title : AVO (Василий Горчаков)
Language : Russian
Service kind : Complete Main
Default : No
Forced : No
Audio #8
ID : 9
Format : AC-3
Format/Info : Audio Coding 3
Format settings, Endianness : Big
Codec ID : A_AC3
Duration : 1 h 49 min
Bit rate mode : Constant
Bit rate : 384 kb/s
Channel(s) : 2 channels
Channel positions : Front: L R
Sampling rate : 48.0 kHz
Frame rate : 31.250 FPS (1536 SPF)
Bit depth : 16 bits
Compression mode : Lossy
Stream size : 301 MiB (2%)
Title : AVO (Михаил Яроцкий)
Language : Russian
Service kind : Complete Main
Default : No
Forced : No
Audio #9
ID : 10
Format : AC-3
Format/Info : Audio Coding 3
Mode : Dolby Digital
Format settings, Endianness : Big
Codec ID : A_AC3
Duration : 1 h 49 min
Bit rate mode : Constant
Bit rate : 192 kb/s
Channel(s) : 2 channels
Channel positions : Front: L R
Sampling rate : 48.0 kHz
Frame rate : 31.250 FPS (1536 SPF)
Bit depth : 16 bits
Compression mode : Lossy
Stream size : 151 MiB (1%)
Title : VO (неизвестно)
Language : Russian
Service kind : Complete Main
Default : No
Forced : No
Audio #10
ID : 11
Format : DTS
Format/Info : Digital Theater Systems
Mode : 16
Format settings, Endianness : Big
Codec ID : A_DTS
Duration : 1 h 49 min
Bit rate mode : Constant
Bit rate : 1 509 kb/s
Channel(s) : 2 channels
Channel positions : Front: L R
Sampling rate : 48.0 kHz
Frame rate : 93.750 FPS (512 SPF)
Bit depth : 24 bits
Compression mode : Lossy
Stream size : 1.16 GiB (6%)
Title : Original
Language : English
Default : No
Forced : No
Text #1
ID : 12
Format : UTF-8
Codec ID : S_TEXT/UTF8
Codec ID/Info : UTF-8 Plain Text
Language : Russian
Default : No
Forced : No
Text #2
ID : 13
Format : UTF-8
Codec ID : S_TEXT/UTF8
Codec ID/Info : UTF-8 Plain Text
Language : English
Default : No
Forced : No
Menu
00:00:00.000 : :Chapter 01
00:03:22.035 : :Chapter 02
00:09:45.334 : :Chapter 03
00:13:07.161 : :Chapter 04
00:21:00.050 : :Chapter 05
00:29:03.616 : :Chapter 06
00:37:33.251 : :Chapter 07
00:42:20.955 : :Chapter 08
00:50:04.376 : :Chapter 09
00:58:54.656 : :Chapter 10
01:07:32.131 : :Chapter 11
01:17:58.548 : :Chapter 12
01:23:50.066 : :Chapter 13
01:28:48.072 : :Chapter 14
01:34:14.398 : :Chapter 15
01:44:12.621 : :Chapter 16
01:49:40.323 : :Chapter 17

Скриншоты


[Профиль] [ЛС]
Показать сообщения:    
Ответить на тему

Текущее время: 01-Дек 20:16

Часовой пояс: UTC + 3



Вы не можете начинать темы
Вы не можете отвечать на сообщения
Вы не можете редактировать свои сообщения
Вы не можете удалять свои сообщения
Вы не можете голосовать в опросах
Вы не можете прикреплять файлы к сообщениям
Вы не можете скачивать файлы