Жестяной кубок / Tin Cup (1996) WEB-DLRip 720p от SuperMin | P, P2

Ответить на тему
Статистика раздачи
Нет
   
 
Автор Сообщение

Viktor59 ®

Стаж: 7 года 9 месяца

Сообщений: 894

Откуда: Измаил

Создавать темы 10-Ноя-2020 16:45

[Цитировать]

Информация о фильме
Название: Жестяной кубок
Оригинальное название: Tin Cup
Год выхода: 1996
Жанр: драма, мелодрама, комедия, спорт
Режиссер: Рон Шелтон
В ролях: Кевин Костнер, Дон Джонсон, Рени Руссо, Рекс Линн, Ричард "Чич" Марин, Джордж Перес, Лу Майерс, Майкл Милхоэн, Микки Джоунс, Деннис Беркли, Линда Харт, Ричард Лайнбэк

Бывший спортсмен отлично играющий в гольф в настоящее время остался у разбитого корыта. Все не ладится в его жизни. Денежные проблемы заставляют его подрабатывать учителем игры в гольф.
И у него появляется надежда осуществить мечту жизни: выиграть кубок на престижных соревнованиях в гольф. В этом ему помогает девушка, она придает ему уверенность в победе.


Страна: США
Студия: Regency Enterprises, Warner Bros.
Продолжительность: 02:14:40
Перевод: Профессиональный многоголосый закадровый, Профессиональный двухголосый закадровый (Universal Channel)
Файл
Кодек: H.264
Качество: WEB-DLRip 720p
Видео: 1280x720 (16:9), 3764 kbps, 23.976 fps
Звук: Русский (AC-3, 6ch, 384 kbps) MVO
Русский (AC-3, 2ch, 192 kbps) DVO Universal Channel
Английский (AC-3, 6ch, 384 kbps)
Субтитры: Русские, английские

MI

x264 [info]: frame I:1584 Avg QP:17.70 size: 87194
x264 [info]: frame P:48151 Avg QP:18.79 size: 37485
x264 [info]: frame B:143991 Avg QP:21.14 size: 12906
x264 [info]: consecutive B-frames: 1.9% 3.4% 6.3% 59.7% 9.7% 17.0% 1.1% 0.6% 0.1% 0.1% 0.0%
General
Unique ID : 28210249079350738575248108996763283054 (0x153918AA0102D4364744043C22836E6E)
Complete name : F:КИНОРУТОРЖестяной кубок.WEB-DLRip 720p.mkv
Format : Matroska
Format version : Version 4
File size : 4.45 GiB
Duration : 2 h 14 min
Overall bit rate : 4 726 kb/s
Movie name : Жестяной кубок / Tin Cup (1996) - #LORDKILL#
Encoded date : UTC 2020-11-10 12:09:32
Writing application : mkvmerge v32.0.0 ('Astral Progressions') 64-bit
Writing library : libebml v1.3.7 + libmatroska v1.5.0
Video
ID : 1
Format : AVC
Format/Info : Advanced Video Codec
Format profile : High@L4.1
Format settings : CABAC / 9 Ref Frames
Format settings, CABAC : Yes
Format settings, Reference : 9 frames
Codec ID : V_MPEG4/ISO/AVC
Duration : 2 h 14 min
Bit rate : 3 764 kb/s
Width : 1 280 pixels
Height : 720 pixels
Display aspect ratio : 16:9
Frame rate mode : Constant
Frame rate : 23.976 (24000/1001) FPS
Color space : YUV
Chroma subsampling : 4:2:0
Bit depth : 8 bits
Scan type : Progressive
Bits/(Pixel*Frame) : 0.170
Stream size : 3.54 GiB (80%)
Writing library : x264 core 159 r2991 1771b55
Encoding settings : cabac=1 / ref=9 / deblock=1:-2:-2 / analyse=0x3:0x113 / me=umh / subme=10 / psy=1 / psy_rd=1.00:0.20 / mixed_ref=1 / me_range=32 / chroma_me=1 / trellis=2 / 8x8dct=1 / cqm=0 / deadzone=21,11 / fast_pskip=0 / chroma_qp_offset=-3 / threads=12 / lookahead_threads=3 / sliced_threads=0 / nr=0 / decimate=1 / interlaced=0 / bluray_compat=0 / constrained_intra=0 / bframes=10 / b_pyramid=2 / b_adapt=2 / b_bias=0 / direct=1 / weightb=1 / open_gop=0 / weightp=2 / keyint=240 / keyint_min=23 / scenecut=40 / intra_refresh=0 / rc=crf / mbtree=0 / crf=19.0 / qcomp=0.60 / qpmin=0 / qpmax=69 / qpstep=4 / ip_ratio=1.40 / pb_ratio=1.30 / aq=1:1.00
Default : Yes
Forced : No
Audio #1
ID : 2
Format : AC-3
Format/Info : Audio Coding 3
Commercial name : Dolby Digital
Codec ID : A_AC3
Duration : 2 h 14 min
Bit rate mode : Constant
Bit rate : 384 kb/s
Channel(s) : 6 channels
Channel layout : L R C LFE Ls Rs
Sampling rate : 48.0 kHz
Frame rate : 31.250 FPS (1536 SPF)
Compression mode : Lossy
Stream size : 370 MiB (8%)
Title : MVO
Language : Russian
Service kind : Complete Main
Default : Yes
Forced : No
Audio #2
ID : 3
Format : AC-3
Format/Info : Audio Coding 3
Commercial name : Dolby Digital
Codec ID : A_AC3
Duration : 2 h 14 min
Bit rate mode : Constant
Bit rate : 192 kb/s
Channel(s) : 2 channels
Channel layout : L R
Sampling rate : 48.0 kHz
Frame rate : 31.250 FPS (1536 SPF)
Compression mode : Lossy
Stream size : 185 MiB (4%)
Title : DVO (Universal Canal)
Language : Russian
Service kind : Complete Main
Default : No
Forced : No
Audio #3
ID : 4
Format : AC-3
Format/Info : Audio Coding 3
Commercial name : Dolby Digital
Codec ID : A_AC3
Duration : 2 h 14 min
Bit rate mode : Constant
Bit rate : 384 kb/s
Channel(s) : 6 channels
Channel layout : L R C LFE Ls Rs
Sampling rate : 48.0 kHz
Frame rate : 31.250 FPS (1536 SPF)
Compression mode : Lossy
Stream size : 370 MiB (8%)
Language : English
Service kind : Complete Main
Default : No
Forced : No
Text #1
ID : 5
Format : UTF-8
Codec ID : S_TEXT/UTF8
Codec ID/Info : UTF-8 Plain Text
Duration : 2 h 9 min
Bit rate : 92 b/s
Count of elements : 1710
Stream size : 87.7 KiB (0%)
Title : full
Language : Russian
Default : Yes
Forced : No
Text #2
ID : 6
Format : UTF-8
Codec ID : S_TEXT/UTF8
Codec ID/Info : UTF-8 Plain Text
Duration : 2 h 7 min
Bit rate : 63 b/s
Count of elements : 1877
Stream size : 59.1 KiB (0%)
Title : full
Language : English
Default : No
Forced : No
Text #3
ID : 7
Format : UTF-8
Codec ID : S_TEXT/UTF8
Codec ID/Info : UTF-8 Plain Text
Duration : 2 h 14 min
Bit rate : 82 b/s
Count of elements : 2646
Stream size : 81.4 KiB (0%)
Language : English
Default : No
Forced : No

Скриншоты

[Профиль] [ЛС]
Показать сообщения:    
Ответить на тему

Текущее время: 01-Дек 21:34

Часовой пояс: UTC + 3



Вы не можете начинать темы
Вы не можете отвечать на сообщения
Вы не можете редактировать свои сообщения
Вы не можете удалять свои сообщения
Вы не можете голосовать в опросах
Вы не можете прикреплять файлы к сообщениям
Вы не можете скачивать файлы