Новый Человек-паук: Высокое напряжение в 3Д / The Amazing Spider-Man 2 3D (2014, Marc Webb, BDRip-AVC by Ash61) Half OverUnder / Вертикальная анаморфная стереопара

Ответить на тему
Статистика раздачи
Нет
   
 
Автор Сообщение

utermidai ®

Стаж: 6 года 10 месяца

Сообщений: 637

Откуда: Ukraine

Создавать темы 15-Ноя-2020 21:15

[Цитировать]


Информация о фильме:
Название: Новый Человек-паук: Высокое напряжение
Оригинальное название: The Amazing Spider-Man 2
Страна: США
Производство: Marvel Studios, Columbia Pictures
Год выпуска: 10 апреля 2014
Слоган: «No more secrets»
Жанр: Фантастика, Боевик, Приключения
Продолжительность: 02:21:35
Перевод: Профессиональный дублированный (лицензия)
Режиссер: Марк Уэбб

Роли исполняли (дублировали):
Peter Parker / Spider-Man Эндрю Гарфилд ( Сергей Смирнов )
Gwen Stacy Эмма Стоун ( Виктория Слуцкая )
Electro / Max Dillon Джейми Фокс ( Василий Дахненко )
Green Goblin / Harry Osborn Дэйн ДеХаан ( Антон Колесников )
Aunt May Салли Филд ( Елена Шульман )
Donald Menken Колм Фиор ( Леонид Белозорович )
Felicia Фелисити Джонс
Aleksei Sytsevich Пол Джаматти ( Константин Карасик )
Dr. Ashley Kafka Мартон Чокаш ( Александр Головчанский )
Richard Parker Кэмпбелл Скотт ( Александр Рахленко )
Mary Parker Эмбет Дэвидц ( Ольга Зубкова )
Norman Osborn Крис Купер ( Владимир Левашёв )
Captain Stacy (озвучка) Дэнис Лири ( Александр Новиков )
Kari Сара Гадон ( Ольга Зубкова )
Dimitri Gustav Fiers (The Gentleman) ( Майкл Масси ) ( Александр Новиков )
Uncle Ben Мартин Шин О фильме:
Питер Паркер под маской Человека-паука по-прежнему спасает мир от злодеев и преступников, а свободное время проводит со своей возлюбленной Гвен, но школьная пора близится к концу, и впереди героев ждет взрослая жизнь.
Питер помнит о том, что дал отцу Гвен слово навсегда уйти из жизни девушки, тем самым больше не подвергая ее опасности. Однако сдержать это обещание не так просто.
Судьба готовит Питеру сюрпризы: на его пути появится новый противник — Электро, а также ему будет суждено вновь встретиться с давним приятелем Гарри Озборном и узнать много нового о прошлом своей семьи.-- Информация о видео-файле:
Качество: BDRip (by Ash61)
Контейнер: MKV
Формат 3D: Half OverUnder / Вертикальная анаморфная стереопара
Порядок ракурсов: левый ракурс первый
Видео кодек: x264
Аудио кодек: AC3
Видео:
AVC / 1920х1080p / 23,976 fps / 11.5 Mbps
Аудио:
#1 - Русский / AC3 / 48 KHz / 5.1 ch / 640 Kbps (Дубляж - BD CEE)
#2 - Украинский / AC3 / 48 KHz / 5.1 ch / 640 Kbps (Дубляж - BD CEE)
#3 - Английский / AC3 / 48 KHz / 5.1 ch / 640 Kbps (Original - BD 3D)
Субтитры(SRT):
Вшитые (softsub):
#1 - Русские Форсированные [iTunes, дополненные] (включены по умолчанию)
#2 - Русские Полные <i>
#3 - Русские Комментарии создателей
#4 - Украинские Форсированные <i> (перевод vinalord) (thnx subsvin2)
#5 - English Full
#6 - English Full <i>
#7 - English SDH <i>
#8 - English SDH-Colored
#9 - English Comments
Внешние (UTF-8):
#1 - Русские Форсированные [iTunes, дополненные] (включены по умолчанию)
#2 - Украинские Форсированные (vinalord) Знаете ли вы, что...

Знаете ли вы, что...

Специально для этого фильма костюм Человека-паука изменили и придали ему вид максимально схожий с костюмом, в котором он впервые появился на страницах комиксов.
Шейлин Вудли была выбрана на роль Мэри Джейн Уотсон, но в июне, когда она уже три дня снималась, было объявлено, что Мэри Джейн была вырезана из сюжета и появится лишь в третьей части, чтобы сосредоточиться на отношениях Питера Паркера и Гвен Стейси. Также стало известно, что роль могут отдать другой актрисе.
28 сентября 2012 года было подтверждено, что Эндрю Гарфилд будет исполнять роль Человека-паука. Одновременно с этим Марк Уэбб был утвержден на место режиссера сиквела.
В августе 2011 года, за 11 месяцев до выхода фильма «Новый Человек-паук» (2012), студия Sony объявила дату выхода сиквела.
1 ноября 2012 года стало известно, что с Джейми Фоксом ведутся переговоры по поводу роли главного злодея. Позже подтвердилась информация, что противником Человека-паука станет Электро. А 3 декабря 2012 года Джейми Фокс официально получил эту роль.
Дэйн ДеХаан, Олден Эйренрайк, Брэйди Корбет, Эдди Редмэйн, Сэм Клафлин, Дуглас Бут и Бойд Холбрук рассматривались на роль Гарри Осборна. 3 декабря 2012 года эту роль получил Дэйн ДеХаан.
Джейми Фокс настоял на том, чтобы Электро не носил классический костюм из комиксов, а вместо этого его внешний вид будет основан на Ultimate-версии комиксов.
Крис Купер ранее снимался в фильме «Фаворит» (2003), в котором вместе с ним играли Тоби Магуайр и Элизабет Бэнкс, снимавшиеся в предыдущей серии фильмов о Человеке-пауке.
Режиссер Марк Уэбб решил снимать фильм на пленку 35 мм вместо цифровых камер Red Epic, на которые был снят первый фильм.
Сара Гадон, Джейн Леви и Кристен Стюарт рассматривались на роль Мэри Джейн, но в итоге от этого персонажа решили отказаться.
Съемки автомобильной погони проходили в Рочестере, Нью-Йорк. В Рочестере также расположен главный офис компании Kodak, и именно на пленку Kodak был снят фильм.
Крис Купер (который играет Нормана Осборна в этом втором фильме обновленной франшизы о Человеке-пауке) рассматривался на роль доктора Октавиуса в фильме «Человек-паук 2» (2004).
Колм Фиор хотел сыграть злодея по имени Стервятник, однако в итоге актер получил роль представителя Oscorp — Дональда.
Чтобы снять бой на Таймс-сквер, декораторы соорудили в натуральную величину точную копию северной части самой известной площади Нью-Йорка.
В здании корпорации Оскорп есть застекленные секции: одна с металлическими крыльями и другая с экзоскелетом с четырьмя щупальцами. Это намек на антагонистов Человека-паука — Стервятника (Адриан Тумс) и доктора Осьминога (Отто Октавиус).
Ближе к концу фильма Гвен Стейси носит пальто цвета мяты и фиолетовую юбку, такую же одежду она носит в комиксе «The Night Gwen Stacy Died» (Ночь, когда Гвен Стейси умерла).
Mедиа инфо

M/инфо

General
Unique ID : 206857297630569179552258795816045358964 (0x9B9F4430F77E2C97A9B2BC540F3DAF74)
Complete name : E:\TheAmazingSpider-Man2(2014)3D-halOU(Ash61)\TheAmazingSpider-Man2(2014)3D-halOU(Ash61).mkv
Format : Matroska
Format version : Version 2
File size : 13.6 GiB
Duration : 2h 21mn
Overall bit rate : 13.7 Mbps
Movie name : Новый Человек-паук: Высокое напряжение / The Amazing Spider-Man 2 (2014) 3D
Encoded date : UTC 2014-08-13 17:44:43
Writing application : mkvmerge v5.8.0 ('No Sleep / Pillow') built on Sep 2 2012 15:37:04
Writing library : libebml v1.2.3 + libmatroska v1.3.0
Video
ID : 1
Format : AVC
Format/Info : Advanced Video Codec
Format profile : High@L4.1
Format settings, CABAC : Yes
Format settings, ReFrames : 4 frames
Codec ID : V_MPEG4/ISO/AVC
Duration : 2h 21mn
Bit rate : 11.5 Mbps
Width : 1 920 pixels
Height : 1 080 pixels
Display aspect ratio : 16:9
Frame rate mode : Constant
Frame rate : 23.976 fps
Color space : YUV
Chroma subsampling : 4:2:0
Bit depth : 8 bits
Scan type : Progressive
Bits/(Pixel*Frame) : 0.232
Stream size : 11.4 GiB (84%)
Title : BDRip by Ash61
Writing library : x264 core 138 r2358 9e941d1
Encoding settings : cabac=1 / ref=4 / deblock=1:-3:-3 / analyse=0x3:0x113 / me=umh / subme=10 / psy=1 / psy_rd=1.00:0.15 / mixed_ref=1 / me_range=32 / chroma_me=1 / trellis=2 / 8x8dct=1 / cqm=0 / deadzone=21,11 / fast_pskip=1 / chroma_qp_offset=-3 / threads=12 / lookahead_threads=2 / sliced_threads=0 / nr=0 / decimate=1 / interlaced=0 / bluray_compat=0 / constrained_intra=0 / bframes=9 / b_pyramid=2 / b_adapt=2 / b_bias=0 / direct=3 / weightb=1 / open_gop=0 / weightp=2 / keyint=250 / keyint_min=23 / scenecut=40 / intra_refresh=0 / rc_lookahead=60 / rc=crf / mbtree=1 / crf=17.5 / qcomp=0.70 / qpmin=0 / qpmax=69 / qpstep=4 / vbv_maxrate=40000 / vbv_bufsize=30000 / crf_max=0.0 / nal_hrd=none / frame-packing=4 / ip_ratio=1.40 / aq=1:0.70
Language : English
Default : Yes
Forced : No
Audio #1
ID : 2
Format : AC-3
Format/Info : Audio Coding 3
Mode extension : CM (complete main)
Format settings, Endianness : Big
Codec ID : A_AC3
Duration : 2h 21mn
Bit rate mode : Constant
Bit rate : 640 Kbps
Channel(s) : 6 channels
Channel positions : Front: L C R, Side: L R, LFE
Sampling rate : 48.0 KHz
Bit depth : 16 bits
Compression mode : Lossy
Stream size : 648 MiB (5%)
Title : Дубляж - BD CEE
Language : Russian
Default : Yes
Forced : No
Audio #2
ID : 3
Format : AC-3
Format/Info : Audio Coding 3
Mode extension : CM (complete main)
Format settings, Endianness : Big
Codec ID : A_AC3
Duration : 2h 21mn
Bit rate mode : Constant
Bit rate : 640 Kbps
Channel(s) : 6 channels
Channel positions : Front: L C R, Side: L R, LFE
Sampling rate : 48.0 KHz
Bit depth : 16 bits
Compression mode : Lossy
Stream size : 648 MiB (5%)
Title : Дубляж - BD CEE
Language : Ukrainian
Default : No
Forced : No
Audio #3
ID : 4
Format : AC-3
Format/Info : Audio Coding 3
Mode extension : CM (complete main)
Format settings, Endianness : Big
Codec ID : A_AC3
Duration : 2h 21mn
Bit rate mode : Constant
Bit rate : 640 Kbps
Channel(s) : 6 channels
Channel positions : Front: L C R, Side: L R, LFE
Sampling rate : 48.0 KHz
Bit depth : 16 bits
Compression mode : Lossy
Stream size : 648 MiB (5%)
Title : Original - BD 3D
Language : English
Default : No
Forced : No
Text #1
ID : 5
Format : UTF-8
Codec ID : S_TEXT/UTF8
Codec ID/Info : UTF-8 Plain Text
Title : Форсированные (iTunes, дополненные)
Language : Russian
Default : Yes
Forced : No
Text #2
ID : 6
Format : UTF-8
Codec ID : S_TEXT/UTF8
Codec ID/Info : UTF-8 Plain Text
Title : Полные (i-фицированные)
Language : Russian
Default : No
Forced : No
Text #3
ID : 7
Format : UTF-8
Codec ID : S_TEXT/UTF8
Codec ID/Info : UTF-8 Plain Text
Title : Комментарии создателей
Language : Russian
Default : No
Forced : No
Text #4
ID : 8
Format : UTF-8
Codec ID : S_TEXT/UTF8
Codec ID/Info : UTF-8 Plain Text
Title : Форсированные (vinalord)
Language : Ukrainian
Default : No
Forced : No
Text #5
ID : 9
Format : UTF-8
Codec ID : S_TEXT/UTF8
Codec ID/Info : UTF-8 Plain Text
Title : Full
Language : English
Default : No
Forced : No
Text #6
ID : 10
Format : UTF-8
Codec ID : S_TEXT/UTF8
Codec ID/Info : UTF-8 Plain Text
Title : Full <i>
Language : English
Default : No
Forced : No
Text #7
ID : 11
Format : UTF-8
Codec ID : S_TEXT/UTF8
Codec ID/Info : UTF-8 Plain Text
Title : SDH
Language : English
Default : No
Forced : No
Text #8
ID : 12
Format : UTF-8
Codec ID : S_TEXT/UTF8
Codec ID/Info : UTF-8 Plain Text
Title : SDH-Colored
Language : English
Default : No
Forced : No
Text #9
ID : 13
Format : UTF-8
Codec ID : S_TEXT/UTF8
Codec ID/Info : UTF-8 Plain Text
Title : Comments
Language : English
Default : No
Forced : No
Menu
00:00:00.000 : :1
00:07:05.341 : :2
00:14:28.200 : :3
00:20:13.836 : :4
00:29:27.097 : :5
00:39:02.590 : :6
00:50:56.802 : :7
00:59:52.755 : :8
01:08:53.127 : :9
01:16:19.949 : :10
01:25:27.704 : :11
01:35:23.259 : :12
01:41:30.333 : :13
01:49:18.342 : :14
01:57:00.637 : :15
02:04:44.350 : :16


-Время раздачи: по мере возможности
[Профиль] [ЛС]
Показать сообщения:    
Ответить на тему

Текущее время: 01-Дек 21:54

Часовой пояс: UTC + 3



Вы не можете начинать темы
Вы не можете отвечать на сообщения
Вы не можете редактировать свои сообщения
Вы не можете удалять свои сообщения
Вы не можете голосовать в опросах
Вы не можете прикреплять файлы к сообщениям
Вы не можете скачивать файлы