Шрек Третий в 3Д / Shrek the Third 3D Half (2007, Chris Miller / Raman Hui, BDRip 1080p by Killbrain) Half OverUnder / Вертикальная анаморфная стереопара

Ответить на тему
Статистика раздачи
Нет
   
 
Автор Сообщение

utermidai ®

Стаж: 6 года 10 месяца

Сообщений: 637

Откуда: Ukraine

Создавать темы 18-Ноя-2020 21:31

[Цитировать]


Информация о фильме:
Название: Шрек Третий
Оригинальное название: Shrek the Third
Страна: США
Производство: DreamWorks Animation, Pacific Data Images (PDI)
Год выпуска: 6 мая 2007
Слоган: «Да прийдет царствие его»
Жанр: Фэнтези, Комедия, Приключения, Семейный
Продолжительность: 01:32:44
Перевод: Профессиональный дублированный + оригинальная дорога
Режиссер: Крис Миллер / Раман Хуи

Роли озвучили (дублировали):
Shrek Майк Майерс ( Алексей Колган )
Donkey Эдди Мёрфи ( Вадим Андреев )
Princess Fiona Кэмерон Диаз ( Жанна Никонова )
Puss in Boots Антонио Бандерас ( Всеволод Кузнецов )
Queen Джули Эндрюс ( Любовь Германова )
King Джон Клиз ( Игорь Ясулович )
Prince Charming Руперт Эверет ( Анатолий Белый )
Merlin Эрик Айдл ( Александр Леньков )
Artie Джастин Тимберлэйк ( Сергей Лазарев )
Pinocchio Коуди Камерон ( Олег Вирозуб )
Doris Ларри Кинг ( Сергей Чонишвили )
Blind Mice Кристофер Найтс ( Вячеслав Баранов ) О фильме:
Королем может быть не каждый - особенно если вы Огр. Когда Шрэк женился на принцессе Фионе, он меньше всего на свете хотел управлять Далекой-Далекой страной. Такой он не властолюбивый.
Однако отец Фионы, король Гарольд, внезапно умирает, и корону должен унаследовать именно Шрэк. Как-никак, он все-таки муж наследницы.
Шрэку не нужно бремя власти, и он решает отправиться вместе со своими старыми друзьями Ослом и Котом в сапогах на поиски кандидата на трон. Если Шрэк не найдет себе подходящей замены, ему придется управлять сказочной страной самому… и это надолго. Похоже, что наследник Артур - тот, кто им нужен.
Тем временем в отсутствие великана его старый враг принц по имени Чарминг замышляет месть, для чего и возвращается в сказочную страну. Шрэку придется очень постараться, чтобы спасти страну от происков врагов и от возможного переворота.-- Информация о видео-файле:
Качество: BDRip - AVC
Контейнер: MKV
Формат 3D: Half OverUnder / Вертикальная анаморфная стереопара
Порядок ракурсов: левый ракурс первый
Видео кодек: x264
Аудио кодек: AC3
Видео:
AVC / 1920х1080p / 23.976 fps / 7794 Kbps
Аудио:
#1 - Русский / AC3 / 48.0 KHz / 5.1 ch / 640 Kbps (дубляж BD)
#2 - Английский / AC3 / 48.0 KHz / 5.1 ch /640 Kbps (Original BD)
Субтитры отсутствуют:
Дополнительно: Сохранены оригинальные чаптеры как на Blu-ray.
Рип от: Killbrain Знаете ли вы, что...

Знаете ли вы, что...

Новыми действующими лицами в этой серии, помимо принца Арти, стали традиционные персонажи легенд о рыцарях Круглого Стола — Мерлин (Эрик Айдл) и Ланселот (Джон Красински).
Антонио Бандерас в фильме говорит, помимо английского языка, ещё на итальянском и испанском.
В одной из сцен у Пряничного человечка перед глазами проносится вся его жизнь. Это отсыл к фильму «Человек на шесть миллионов долларов» (1974). Кстати, согласно этой сцене, Пряничный человечек женат (или был женат).
Фильм развозился по кинотеатрам под фальшивым именем «Stone» («Камень»).
Во время представления принца Чарминга в театре сидят 1373 персонажа.
В конце фильма в своей театральной постановке принц Чарминг появляется на сцене из большой ракушки. Этот эпизод фактически повторение сцены из «Русалочки» Диснея.
Mедиа инфо

M/инфо

Общее
Уникальный идентификатор : 246686799454269613642499474218283978744 (0xB996263EC6F0A1D48C35E47EF6304FF8)
Полное имя : F:\Скачка торрент\Shrek.3.2007.3D.BDRip1080p.HalfOverUnder.(Killbrain).mkv
Формат : Matroska
Версия формата : Version 2
Размер файла : 6,00 Гбайт
Продолжительность : 1 ч. 32 м.
Общий поток : 9258 Кбит/сек
Название фильма : Shrek 3 3D (2007) by Killbrain
Дата кодирования : UTC 2012-10-07 14:14:24
Программа кодирования : mkvmerge v5.8.0 ('No Sleep / Pillow') built on Sep 2 2012 15:37:04
Библиотека кодирования : libebml v1.2.3 + libmatroska v1.3.0
Видео
Идентификатор : 1
Формат : AVC
Формат/Информация : Advanced Video Codec
Профиль формата : High@L4.1
Параметр CABAC формата : Да
Параметр ReFrames формата : 4 кадра
Идентификатор кодека : V_MPEG4/ISO/AVC
Продолжительность : 1 ч. 32 м.
Битрейт : 7794 Кбит/сек
Ширина : 1920 пикселей
Высота : 1080 пикселей
Соотношение сторон : 16:9
Режим частоты кадров : Постоянный
Частота кадров : 23,976 кадра/сек
Цветовое пространство : YUV
Субдискретизация насыщенности : 4:2:0
Битовая глубина : 8 бит
Тип развёртки : Прогрессивная
Бит/(Пиксели*Кадры) : 0.157
Размер потока : 5,05 Гбайт (84%)
Заголовок : Shrek 3 3D (2007)
Библиотека кодирования : x264 core 128 r2216 198a7ea
Настройки программы : cabac=1 / ref=4 / deblock=1:-3:-3 / analyse=0x3:0x113 / me=umh / subme=9 / psy=1 / psy_rd=1.00:0.15 / mixed_ref=1 / me_range=16 / chroma_me=1 / trellis=2 / 8x8dct=1 / cqm=0 / deadzone=21,11 / fast_pskip=1 / chroma_qp_offset=-3 / threads=3 / lookahead_threads=1 / sliced_threads=0 / slices=4 / nr=0 / decimate=1 / interlaced=0 / bluray_compat=0 / constrained_intra=0 / bframes=6 / b_pyramid=2 / b_adapt=2 / b_bias=0 / direct=3 / weightb=1 / open_gop=0 / weightp=2 / keyint=240 / keyint_min=23 / scenecut=40 / intra_refresh=0 / rc_lookahead=60 / rc=crf / mbtree=1 / crf=17.0 / qcomp=0.70 / qpmin=0 / qpmax=69 / qpstep=4 / vbv_maxrate=40000 / vbv_bufsize=40000 / crf_max=0.0 / nal_hrd=none / frame-packing=4 / ip_ratio=1.40 / aq=1:0.70
Язык : English
Default : Да
Forced : Нет
Аудио #1
Идентификатор : 2
Формат : AC-3
Формат/Информация : Audio Coding 3
Расширение режима : CM (complete main)
Параметр Endianness формата : Big
Идентификатор кодека : A_AC3
Продолжительность : 1 ч. 32 м.
Вид битрейта : Постоянный
Битрейт : 640 Кбит/сек
Каналы : 6 каналов
Расположение каналов : Front: L C R, Side: L R, LFE
Частота : 48,0 КГц
Битовая глубина : 16 бит
Метод сжатия : С потерями
Размер потока : 425 Мбайт (7%)
Заголовок : AC3 / 5.1 ch / 640 kbps / 16 bit / Русский дубляж BD
Язык : Russian
Default : Да
Forced : Нет
Аудио #2
Идентификатор : 3
Формат : AC-3
Формат/Информация : Audio Coding 3
Расширение режима : CM (complete main)
Параметр Endianness формата : Big
Идентификатор кодека : A_AC3
Продолжительность : 1 ч. 32 м.
Вид битрейта : Постоянный
Битрейт : 640 Кбит/сек
Каналы : 6 каналов
Расположение каналов : Front: L C R, Side: L R, LFE
Частота : 48,0 КГц
Битовая глубина : 16 бит
Метод сжатия : С потерями
Размер потока : 425 Мбайт (7%)
Заголовок : AC3 / 5.1 ch / 640 kbps / 16 bit / Original BD
Язык : English
Default : Нет
Forced : Нет
Menu
00:00:00.000 : :Chapter 01
00:03:21.367 : :Chapter 02
00:09:32.029 : :Chapter 03
00:13:48.410 : :Chapter 04
00:17:28.338 : :Chapter 05
00:25:12.886 : :Chapter 06
00:32:13.097 : :Chapter 07
00:38:32.727 : :Chapter 08
00:41:14.013 : :Chapter 09
00:49:11.657 : :Chapter 10
00:51:52.234 : :Chapter 11
00:56:50.365 : :Chapter 12
00:59:21.307 : :Chapter 13
01:03:29.180 : :Chapter 14
01:07:05.271 : :Chapter 15
01:10:28.182 : :Chapter 16
01:19:41.276 : :Chapter 17
01:22:21.519 : :Chapter 18
01:32:43.015 : :Chapter 19


-Время раздачи: по мере возможности
[Профиль] [ЛС]
Показать сообщения:    
Ответить на тему

Текущее время: 01-Дек 21:39

Часовой пояс: UTC + 3



Вы не можете начинать темы
Вы не можете отвечать на сообщения
Вы не можете редактировать свои сообщения
Вы не можете удалять свои сообщения
Вы не можете голосовать в опросах
Вы не можете прикреплять файлы к сообщениям
Вы не можете скачивать файлы