Защитник / Safe (Боаз Якин / Boaz Yakin) [2012, США, боевик, криминал, BDRip] [US-Transfer] Dub (Лицензия)

Ответить на тему
 
Автор Сообщение

Enigmatik ®

Пол: Мужской

Стаж: 7 года 11 месяца

Сообщений: 1138

Откуда: ✔ Оттуда ✔

Создавать темы 03-Янв-2014 20:31

[Цитировать]

Защитник / Safe
«Он - её единственный шанс. Она - его последняя надежда.»
- Страна: США
Студия: Current Entertainment
Жанр: боевик, криминал
Год выпуска: 2012
Продолжительность: 01:34:37-Перевод: Профессиональный (дублированный) лицензия
Cубтитры: нет
Режиссер: Боаз Якин / Boaz Yakin-В ролях: Джейсон Стэйтем (Luke Wright), Катрин Чан (Mei), Роберт Джон Бёрк (Captain Wolf), Джеймс Хонг (Han Jiao), Энсон Маунт (Alex Rosen), Крис Сарандон (Mayor Tremello), Сандор Текси (Emile Docheski), Джозеф Сикора (Vassily Docheski), Игорь Жижикин (Chemyakin), Регги Ли (Quan Chang), Джеймс Колби (Detective Mears), Мэтт О’Тул (Detective Lasky).-Описание:
Бывший агент элитных спецслужб спасает девочку с уникальными способностями из цепких лап Нью-Йоркской мафии. Она — единственная, кто знает код от сейфа, где хранятся миллионы долларов китайских Триад. И теперь только профессионал может защитить ее от мафии, азиатских ассасинов и коррумпированных полицейских. На улицах Нью-Йорка развернется погоня за девочкой, которой очень повезло с Защитником…
-Сэмпл: http://multi-up.com/771511-Качество видео: BDRip (Исх.: BDRemux US)
Формат видео: AVI
Видео: XviD build 65, 720x304 (2.37:1), 23.976 fps, 1750 kbps avg, 0.333 bit/pixel
Аудио: 48 kHz, AC3 Dolby Digital, 3/2 (L,C,R,l,r) + LFE ch, 448 kbps avg (Rus Dub)-

MediaInfo

Общее
Полное имя : D:\Torrent Rutracker\Safe.2012.Dub.US-Transfer.BDRip.XviD.AC3.avi
Формат : AVI
Формат/Информация : Audio Video Interleave
Размер файла : 1,46 Гбайт
Продолжительность : 1 ч. 34 м.
Общий поток : 2207 Кбит/сек
Программа кодирования : VirtualDubModRus 1.5.10.2 (build 2542/release)
Библиотека кодирования : VirtualDubMod build 2542/release
Видео
Идентификатор : 0
Формат : MPEG-4 Visual
Профиль формата : Advanced Simple@L5
Параметр BVOP формата : 2
Параметр QPel формата : Нет
Параметр GMC формата : Без точки перехода
Параметр матрицы формата : Выборочная
Идентификатор кодека : XVID
Идентификатор кодека/Подсказка : XviD
Продолжительность : 1 ч. 34 м.
Битрейт : 1750 Кбит/сек
Ширина : 720 пикселей
Высота : 304 пикселя
Соотношение сторон : 2,35:1
Частота кадров : 23,976 кадра/сек
Цветовое пространство : YUV
Субдискретизация насыщенности : 4:2:0
Битовая глубина : 8 бит
Тип развёртки : Прогрессивная
Метод сжатия : С потерями
Бит/(Пиксели*Кадры) : 0.333
Размер потока : 1,16 Гбайт (79%)
Библиотека кодирования : XviD 65
Аудио
Идентификатор : 1
Формат : AC-3
Формат/Информация : Audio Coding 3
Расширение режима : CM (complete main)
Идентификатор кодека : 2000
Продолжительность : 1 ч. 34 м.
Вид битрейта : Постоянный
Битрейт : 448 Кбит/сек
Каналы : 6 каналов
Расположение каналов : Front: L C R, Side: L R, LFE
Частота : 48,0 КГц
Битовая глубина : 16 бит
Метод сжатия : С потерями
Размер потока : 303 Мбайт (20%)
Выравнивание : Разделение по промежуткам
Продолжительность промежутка : 42 мс. (1,00 видеокадр)
Время предзагрузки промежутка : 500 мс.
Заголовок : Rus Dub
-
[Профиль] [ЛС]
Показать сообщения:    
Ответить на тему

Текущее время: 26-Фев 00:24

Часовой пояс: UTC + 3



Вы не можете начинать темы
Вы не можете отвечать на сообщения
Вы не можете редактировать свои сообщения
Вы не можете удалять свои сообщения
Вы не можете голосовать в опросах
Вы не можете прикреплять файлы к сообщениям
Вы не можете скачивать файлы