NG. Последние тайны Третьего рейха: Семья Гитлера / Nazi underworld. Hitler's family (2006) HDTVRip [H.264/1080p]

Ответить на тему
 
Автор Сообщение

messer20080 ®

Пол: Мужской

Стаж: 8 года

Сообщений: 1927

Создавать темы 04-Янв-2014 03:52

[Цитировать]

-NG. Последние тайны Третьего рейха: Семья Гитлера / Nazi underworld. Hitler's family (2012) HDTVRip [H.264/1080p]- Режиссер / Телекомпания: Флориан Беер, Томас Стайхлер / ZDF Production, National geographic
Страна: США
Год выпуска: 2012
Жанр: документальный, исследование, история
Описание: В основе гитлеровской идеологии лежал миф о чистоте расы, главное происхождение, в роду последователей фюрера должны быть только немцы. Из-за происхождения многих выгнали из партии, некоторых даже казнили, при этом происхождение самого фюрера оставалось тайной. Оказывается, его предки были далеки от нацистского идеала о чистоте расы "господ". Сам Гитлер говорил: "Никто не должен знать кто я, и пусть никто не узнает откуда я, и из какой семьи".
Продолжительность: 00:44:59
Перевод: Одноголосый закадровый (профессиональный, студия АРК-ТВ)
Формат файла: MKV
Видеокодек: MPEG-4 AVC/H.264
Битрейт видео: ~ 9 120 Кбит/с
Размер кадра: 1920 x 1072
Качество видео: HDTVRip [1080p]
Аудио:
1. [русский] AC3, 2.0 ch, 384 Кбит/с

MediaInfo

General
Unique ID : 243789904345495324728315442218583593169 (0xB7683A4A02FED89A9D20F11B87B610D1)
Complete name : D:\TORRENTS\!!! РЕЛИЗЫ\Nazi.Underworld.Hitlers.Family.2011.HDTVRip.1080p.mkv
Format : Matroska
Format version : Version 2
File size : 2.99 GiB
Duration : 44mn 59s
Overall bit rate : 9 507 Kbps
Encoded date : UTC 2013-06-08 14:08:50
Writing application : mkvmerge v5.8.0 ('No Sleep / Pillow') built on Sep 2 2012 15:37:04
Writing library : libebml v1.2.3 + libmatroska v1.3.0
Video
ID : 1
Format : AVC
Format/Info : Advanced Video Codec
Format profile : High@L4.0
Format settings, CABAC : Yes
Format settings, ReFrames : 4 frames
Codec ID : V_MPEG4/ISO/AVC
Duration : 44mn 59s
Bit rate : 9 120 Kbps
Width : 1 920 pixels
Height : 1 072 pixels
Display aspect ratio : 16:9
Frame rate mode : Constant
Frame rate : 25.000 fps
Color space : YUV
Chroma subsampling : 4:2:0
Bit depth : 8 bits
Scan type : Progressive
Bits/(Pixel*Frame) : 0.177
Stream size : 2.81 GiB (94%)
Writing library : x264 core 125 r2208 d9d2288
Encoding settings : cabac=1 / ref=4 / deblock=1:-3:-3 / analyse=0x3:0x133 / me=umh / subme=10 / psy=1 / psy_rd=1.00:0.15 / mixed_ref=1 / me_range=32 / chroma_me=1 / trellis=2 / 8x8dct=1 / cqm=0 / deadzone=21,11 / fast_pskip=0 / chroma_qp_offset=-3 / threads=6 / lookahead_threads=1 / sliced_threads=0 / nr=0 / decimate=1 / interlaced=0 / bluray_compat=0 / constrained_intra=0 / bframes=3 / b_pyramid=2 / b_adapt=2 / b_bias=0 / direct=3 / weightb=1 / open_gop=0 / weightp=2 / keyint=250 / keyint_min=25 / scenecut=40 / intra_refresh=0 / rc_lookahead=50 / rc=2pass / mbtree=1 / bitrate=9120 / ratetol=1.0 / qcomp=0.60 / qpmin=10 / qpmax=51 / qpstep=4 / cplxblur=20.0 / qblur=0.5 / ip_ratio=1.40 / aq=1:1.00
Default : Yes
Forced : No
Audio
ID : 2
Format : AC-3
Format/Info : Audio Coding 3
Mode extension : CM (complete main)
Format settings, Endianness : Big
Codec ID : A_AC3
Duration : 44mn 59s
Bit rate mode : Constant
Bit rate : 384 Kbps
Channel(s) : 2 channels
Channel positions : Front: L R
Sampling rate : 48.0 KHz
Bit depth : 16 bits
Compression mode : Lossy
Stream size : 124 MiB (4%)
Default : Yes
Forced : No
Скриншоты:


Пожалуйста, не уходите с раздачи - помогите докачать другим. Если понравился релиз - жмите кнопку "Спасибо"!
Время раздачи: 24 / 7
[Профиль] [ЛС]

Создавать темы 18-Апр-2014 15:20 (спустя 3 месяца 14 дня)

Топик был перенесен из форума Документальные фильмы / Передачи в форум National Geographic

messer20080
 
Показать сообщения:    
Ответить на тему

Текущее время: 07-Мар 20:36

Часовой пояс: UTC + 3



Вы не можете начинать темы
Вы не можете отвечать на сообщения
Вы не можете редактировать свои сообщения
Вы не можете удалять свои сообщения
Вы не можете голосовать в опросах
Вы не можете прикреплять файлы к сообщениям
Вы не можете скачивать файлы