Ча-ча-ча / Cha cha cha (2013) DVDRip [VO]

Ответить на тему
 
Автор Сообщение

Viktor59 ®

Пол: Мужской

Стаж: 8 года

Сообщений: 886

Откуда: Измаил

Создавать темы 04-Янв-2014 11:58

[Цитировать]

-Ча-ча-ча / Cha cha cha (2013) DVDRip- Год выпуска: 2013
Производство: Италия, Франция
Жанр: Триллер, Драма, Криминал
Перевод: Одноголосый закадровый, любительский
Озвучка / Автор перевода: Хихидок
Субтитры: Отсутствуют
Дата мировой премьеры: 20 июня 2013
Режиссер: Марко Ризи
Продюсер: Анджело Барбагалло, Гаэтано Даниэль, Джанфранко Де Роза
Актеры: Лука Арджентеро, Ева Герцигова, Пиппо Дельбонно, Клаудио Амендола, Дэвид Норман Шапиро, Ориана Челентано, Нино Фрассика, Эмануэла Габриели, Ирена Голубева, Марко Леонарди
Описание фильма:
Частный детектив, нанятый известной актрисой следить за ее непутёвым сыном, неожиданно оказывается в центре запутанной криминальной истории, в которой замешаны высшие эшелоны власти.


Продолжительность: 01:26:46
Качество видео: DVDRip
Видеокодек: XviD
Битрейт видео: ~1609 кбит/сек
Размер кадра: 720x304
Аудиокодек: MP3, 2 ch
Битрейт аудио: 192 кбит/сек

MediaInfo:

General
Complete name                  : Cha.Cha.Cha.2013.DVDRip.VO(Xixidok).NNM-CLUB.avi
Format                         : AVI
Format/Info                    : Audio Video Interleave
File size                      : 1.10 GiB
Duration                       : 1h 26mn
Overall bit rate               : 1 812 Kbps
Writing application            : VirtualDubMod 1.5.10.3 (build 2550/release)
Writing library                : VirtualDubMod build 2550/release
Video
ID                             : 0
Format                         : MPEG-4 Visual
Format profile                 : Advanced Simple@L5
Format settings, BVOP          : No
Format settings, QPel          : No
Format settings, GMC           : No warppoints
Format settings, Matrix        : Custom
Codec ID                       : XVID
Codec ID/Hint                  : XviD
Duration                       : 1h 26mn
Bit rate                       : 1 610 Kbps
Width                          : 720 pixels
Height                         : 304 pixels
Display aspect ratio           : 2.35:1
Frame rate                     : 25.000 fps
Color space                    : YUV
Chroma subsampling             : 4:2:0
Bit depth                      : 8 bits
Scan type                      : Progressive
Compression mode               : Lossy
Bits/(Pixel*Frame)             : 0.294
Stream size                    : 999 MiB (89%)
Writing library                : XviD 64
Audio
ID                             : 1
Format                         : MPEG Audio
Format version                 : Version 1
Format profile                 : Layer 3
Codec ID                       : 55
Codec ID/Hint                  : MP3
Duration                       : 1h 26mn
Bit rate mode                  : Constant
Bit rate                       : 192 Kbps
Channel(s)                     : 2 channels
Sampling rate                  : 44.1 KHz
Compression mode               : Lossy
Delay relative to video        : 11ms
Stream size                    : 119 MiB (11%)
Alignment                      : Split accross interleaves
Interleave, duration           : 40 ms (1.00 video frame)
Interleave, preload duration   : 500 ms
Скриншоты:

[Профиль] [ЛС]
Показать сообщения:    
Ответить на тему

Текущее время: 01-Мар 13:02

Часовой пояс: UTC + 3



Вы не можете начинать темы
Вы не можете отвечать на сообщения
Вы не можете редактировать свои сообщения
Вы не можете удалять свои сообщения
Вы не можете голосовать в опросах
Вы не можете прикреплять файлы к сообщениям
Вы не можете скачивать файлы