Ракитник / Бобовник / Gullregn (2020) DVDRip | L1

Ответить на тему
 
Автор Сообщение

BOSS ®

Пол: Мужской

Стаж: 7 года 4 месяца

Сообщений: 5458

Откуда: ODESSA

Создавать темы 26-Янв-2021 22:37

[Цитировать]

Информация о фильме
Название: Ракитник / Бобовник
Оригинальное название: Gullregn
Год выхода: 2020
Жанр: драма, комедия
Режиссер: Рагнар Брагасон
В ролях: Сигрун Эдда Бьёрнсдоуттир, Каролина Грушка, Халльдоура Гейрхардсдоуттир, Йоун Гнарр, Свеинн Олафур Гуннарссон, Халльдоур Гильвасон и другие.
О фильме:
Индиана - современный Мистер Твистер, живущий на льготы и пособия по инвалидности для себя и своего великовозрастного сына, которого она холит и лелеет, как и бобовник, который растит у себя в саду. Когда сын приводит домой подругу-иностранку, вся жизнь Индианы летит вверх тормашками.

Страна: Исландия, Польша
Студия: Madants (Co-producer), Mystery Productions
Продолжительность: 01:51:08
Перевод: Любительский (одноголосый закадровый) | Владислав Данилов
Файл
Кодек: XviD
Качество: DVDRip
Видео: 720x304 (2.37:1), 25 fps, ~1583 kbps avg, 0.29 bit/pixel
Звук:
Аудио # 1: 48 kHz, AC3 Dolby Digital, 2/0 (L,R) ch, ~192 kbps | русский
Реклама: отсутствует
Семпл

Релиз

Рип, сведение звука, монтаж - Grandfather61
Озвучивание - Владислав Данилов

MediaInfo

Общее
Полное имя : G:Gullregn.2020.DVDRipGullregn.2020.DVDRip.Rus.avi
Формат : AVI
Формат/Информация : Audio Video Interleave
Размер файла : 1,39 Гбайт
Продолжительность : 1 ч. 51 м.
Общий поток : 1 785 Кбит/сек
Программа кодирования : VirtualDubMod 1.5.10.3 (build 2550/release)
Библиотека кодирования : VirtualDubMod build 2550/release
Видео
Идентификатор : 0
Формат : MPEG-4 Visual
Профиль формата : Advanced Simple@L5
Настройки формата : BVOP1
Параметр BVOP формата : 1
Параметр QPel формата : Нет
Параметр GMC формата : Без точки перехода
Параметр матрицы формата : Default (MPEG)
Идентификатор кодека : XVID
Идентификатор кодека/Подсказка : XviD
Продолжительность : 1 ч. 51 м.
Битрейт : 1 584 Кбит/сек
Ширина : 720 пикселей
Высота : 304 пикселя
Соотношение сторон : 2,40:1
Частота кадров : 25,000 кадров/сек
Цветовое пространство : YUV
Субдискретизация насыщенности : 4:2:0
Битовая глубина : 8 бит
Тип развёртки : Прогрессивная
Метод сжатия : С потерями
Бит/(Пиксели*Кадры) : 0.289
Размер потока : 1,23 Гбайт (89%)
Библиотека кодирования : XviD 69
Аудио
Идентификатор : 1
Формат : AC-3
Формат/Информация : Audio Coding 3
Коммерческое название : Dolby Digital
Идентификатор кодека : 2000
Продолжительность : 1 ч. 51 м.
Вид битрейта : Постоянный
Битрейт : 192 Кбит/сек
Каналы : 2 канала
Channel layout : L R
Частота : 48,0 КГц
Частота кадров : 31,250 кадров/сек (1536 SPF)
Метод сжатия : С потерями
Размер потока : 153 Мбайт (11%)
Выравнивание : Разделение по промежуткам
Продолжительность промежутка : 40 мс. (1,00 видеокадр)
Время предзагрузки промежутка : 500 мс.
Service kind : Complete Main

Скриншоты


Релиз от: Grandfather61
[Профиль] [ЛС]
Показать сообщения:    
Ответить на тему

Текущее время: 04-Мар 12:18

Часовой пояс: UTC + 3



Вы не можете начинать темы
Вы не можете отвечать на сообщения
Вы не можете редактировать свои сообщения
Вы не можете удалять свои сообщения
Вы не можете голосовать в опросах
Вы не можете прикреплять файлы к сообщениям
Вы не можете скачивать файлы