Мираж - Отпусти меня (2013) [FLAC|Lossless]<Pop>

Ответить на тему
 
Автор Сообщение

Viktor59 ®

Пол: Мужской

Стаж: 8 года

Сообщений: 886

Откуда: Измаил

Создавать темы 04-Янв-2014 13:49

[Цитировать]

-Мираж - Отпусти меня (2013)- Год: 2013
Жанр: Pop
Страна-производитель диска: Россия
Издатель (лейбл): Юнайтед Мьюзик Групп
Номер по каталогу: UMGCD13-337
Страна: СССР/Россия
Продолжительность: 00:41635
Кодек: FLAC
Битрейт: Lossless
Тип рипа: image+.cue
Источник (релизер): elsazh
Наличие сканов в содержимом раздачи: да
Треклист:
01. Отпусти меня (03:44)
02. Солнечный зайчик (04:11)
03. Дух ночи (03:59)
04. Скорость (03:35)
05. Эхо (04:17)
06. Не в первый раз (04:05)
07. Ты словно тень (04:17)
08. Брось (03:30)
09. Звезда (06:11)
10. Я жду тебя (03:41)

Дополнительная информация&#58;

Очередная версия третьего альбома "Миража", который, к сожалению, так и не увидел свет в своём изначальном виде. Музыка - Андрей Литягин, вокал - Маргарита Суханкина

Отчёт FLAC&#58;

Exact Audio Copy V1.0 beta 3 from 29. August 2011
EAC extraction logfile from 3. January 2014, 21:34
Мираж / Отпусти меня
Used drive : TEAC DV-W524GSB Adapter: 2 ID: 1
Read mode : Secure
Utilize accurate stream : Yes
Defeat audio cache : Yes
Make use of C2 pointers : No
Read offset correction : 6
Overread into Lead-In and Lead-Out : No
Fill up missing offset samples with silence : Yes
Delete leading and trailing silent blocks : No
Null samples used in CRC calculations : Yes
Used interface : Native Win32 interface for Win NT & 2000
Used output format : User Defined Encoder
Selected bitrate : 320 kBit/s
Quality : High
Add ID3 tag : No
Command line compressor : C:\Program Files\FLAC\flac.exe
Additional command line options : -V -8 -T "Date=%year%" -T "Genre=%genre%" %source%
TOC of the extracted CD
Track | Start | Length | Start sector | End sector
---------------------------------------------------------
1 | 0:00.00 | 3:44.07 | 0 | 16806
2 | 3:44.07 | 4:11.36 | 16807 | 35667
3 | 7:55.43 | 3:59.66 | 35668 | 53658
4 | 11:55.34 | 3:35.74 | 53659 | 69857
5 | 15:31.33 | 4:17.67 | 69858 | 89199
6 | 19:49.25 | 4:05.06 | 89200 | 107580
7 | 23:54.31 | 4:17.39 | 107581 | 126894
8 | 28:11.70 | 3:30.36 | 126895 | 142680
9 | 31:42.31 | 6:11.29 | 142681 | 170534
10 | 37:53.60 | 3:41.39 | 170535 | 187148
Range status and errors
Selected range
Filename C:\Мираж - Отпусти меня (2013)\Мираж - Отпусти меня.wav
Peak level 97.6 %
Extraction speed 5.3 X
Range quality 99.9 %
Test CRC FAF4D367
Copy CRC FAF4D367
Copy OK
No errors occurred
AccurateRip summary
Track 1 not present in database
Track 2 not present in database
Track 3 not present in database
Track 4 not present in database
Track 5 not present in database
Track 6 not present in database
Track 7 not present in database
Track 8 not present in database
Track 9 not present in database
Track 10 not present in database
None of the tracks are present in the AccurateRip database
End of status report
==== Log checksum 7C2B9EEF775807D8B99E5076E7F5F4A750C372513A8E595285AF8AF83BACB82E ====
[Профиль] [ЛС]
Показать сообщения:    
Ответить на тему

Текущее время: 07-Мар 21:31

Часовой пояс: UTC + 3



Вы не можете начинать темы
Вы не можете отвечать на сообщения
Вы не можете редактировать свои сообщения
Вы не можете удалять свои сообщения
Вы не можете голосовать в опросах
Вы не можете прикреплять файлы к сообщениям
Вы не можете скачивать файлы