Блаженство / Bliss (2021) WEBRip | L1

Ответить на тему
 
Автор Сообщение

BOSS ®

Пол: Мужской

Стаж: 7 года 4 месяца

Сообщений: 5458

Откуда: ODESSA

Создавать темы 08-Фев-2021 21:08

[Цитировать]

Информация о фильме
Название: Блаженство
Оригинальное название: Bliss
Год выхода: 2021
Жанр: фантастика, драма, мелодрама
Режиссер: Майк Кэхилл
В ролях: Оуэн Уилсон, Сальма Хайек, Неста Купер, Хорхе Лендеборг мл., Ронни Чиэн, Стив Зиссис, Джошуа Леонард, Мадлен Зима, Билл Най, Славой Жижек
О фильме:
Фантастическая драма о мужчине, который недавно пережил весь спектр жизненного негатива: развод, а затем увольнение. После всего этого он встречает странную женщину, которая считает, будто весь мир вокруг — компьютерная симуляция. Она рассказывает ему об этом настолько убедительно, что он сам начинает ей верить...

Страна: США
Студия: Amazon Studios, Big Indie Pictures, Endgame Entertainment, Pakt Media, Stellar Visioning
Продолжительность: 01:43:52
Перевод: Любительский (одноголосый закадровый) | Владислав Данилов
Файл
Кодек: XviD
Качество: WEB-DLRip
Видео: 720x304 (2.37:1), 23.976 fps, ~1590 kbps, 0.30 bit/pixel
Звук:
Аудио # 1: AC3, 48 kHz, 6 ch, 384 kbps | русский
Реклама: отсутствует
Семпл

Релиз

Рип, сведение звука, монтаж - Grandfather61
Озвучивание - Владислав Данилов
Перевод субтитров - Марина Ракитина

MediaInfo

Общее
Полное имя : G:Bliss.2021.WEBRip.rusBliss.2021.WEBRip.rus.avi
Формат : AVI
Формат/Информация : Audio Video Interleave
Размер файла : 1,44 Гбайт
Продолжительность : 1 ч. 43 м.
Общий поток : 1 984 Кбит/сек
Программа кодирования : VirtualDubMod 1.5.10.3 (build 2550/release)
Библиотека кодирования : VirtualDubMod build 2550/release
Видео
Идентификатор : 0
Формат : MPEG-4 Visual
Профиль формата : Advanced Simple@L5
Настройки формата : BVOP1
Параметр BVOP формата : 1
Параметр QPel формата : Нет
Параметр GMC формата : Без точки перехода
Параметр матрицы формата : Default (MPEG)
Идентификатор кодека : XVID
Идентификатор кодека/Подсказка : XviD
Продолжительность : 1 ч. 43 м.
Битрейт : 1 591 Кбит/сек
Ширина : 720 пикселей
Высота : 304 пикселя
Соотношение сторон : 2,40:1
Частота кадров : 23,976 (24000/1001) кадра/сек
Цветовое пространство : YUV
Субдискретизация насыщенности : 4:2:0
Битовая глубина : 8 бит
Тип развёртки : Прогрессивная
Метод сжатия : С потерями
Бит/(Пиксели*Кадры) : 0.303
Размер потока : 1,15 Гбайт (80%)
Библиотека кодирования : XviD 69
Аудио
Идентификатор : 1
Формат : AC-3
Формат/Информация : Audio Coding 3
Коммерческое название : Dolby Digital
Идентификатор кодека : 2000
Продолжительность : 1 ч. 43 м.
Вид битрейта : Постоянный
Битрейт : 384 Кбит/сек
Каналы : 6 каналов
Channel layout : L R C LFE Ls Rs
Частота : 48,0 КГц
Частота кадров : 31,250 кадров/сек (1536 SPF)
Метод сжатия : С потерями
Размер потока : 285 Мбайт (19%)
Выравнивание : Разделение по промежуткам
Продолжительность промежутка : 42 мс. (1,00 видеокадр)
Время предзагрузки промежутка : 500 мс.

Скриншоты


Релиз от: Grandfather61
[Профиль] [ЛС]
Показать сообщения:    
Ответить на тему

Текущее время: 04-Мар 11:50

Часовой пояс: UTC + 3



Вы не можете начинать темы
Вы не можете отвечать на сообщения
Вы не можете редактировать свои сообщения
Вы не можете удалять свои сообщения
Вы не можете голосовать в опросах
Вы не можете прикреплять файлы к сообщениям
Вы не можете скачивать файлы