Тёмный мир: Равновесие ( Олег Асадулин)(Фэнтези, Приключения, 2013) WEB-DLRip [H.264]

Ответить на тему
 
Автор Сообщение

messer20080 ®

Пол: Мужской

Стаж: 7 года 11 месяца

Сообщений: 1927

Создавать темы 05-Янв-2014 11:36

[Цитировать]

-Тёмный мир: Равновесие (2013) WEB-DLRip [H.264]
«Скоро твой мир изменится»
- Год выпуска: 2013
Производство: Россия
Жанр: Фэнтези, Приключения
Перевод: Не требуется (русский)
Субтитры: Отсутствуют
Дата мировой премьеры: 5 декабря 2013
Дата российской премьеры: 5 декабря 2013, «Централ Партнершип»
Режиссер: Олег Асадулин
Продюсер: Наталия Клибанова
Актеры: Мария Пирогова, Павел Прилучный, Макар Запорожский, Евгения Брик, Александр Ратников, Владислав Абашин, Петр Семак, Алиса Хазанова, Валерий Опёнкин, Тимофей Носков
Описание фильма:
Каждый день они крадут твои силы, твои эмоции, твою любовь. Мы называем их Тени. Работа таких, как мы — доставлять их обратно в Тёмный мир. Надвигается катастрофа, и человечество может оказаться во власти тьмы…

Продолжительность: 01:35:11
Качество видео: WEB-DLRip [profille-LQ]
Видеокодек: MPEG-4 AVC/H.264
Битрейт видео: ~2500 кбит/сек
Размер кадра: 1024x432
Частота кадров: 23.976 fps
Аудиокодек: AC3 5.1
Битрейт аудио: 384 кбит/сек

MediaInfo:

General
Unique ID                      : 195193919062143572830744413157928513301 (0x92D8FB3AF5C2069BBEAAB78BB72CAF15)
Complete name                  : Темный.мир.2013.WEB-DLRip-AVC.NNM-CLUB.mkv
Format                         : Matroska
Format version                 : Version 4 / Version 2
File size                      : 1.90 GiB
Duration                       : 1h 35mn
Overall bit rate               : 2 859 Kbps
Movie name                     : Release for NNM-CLUB
Encoded date                   : UTC 2014-01-03 06:58:04
Writing application            : mkvmerge v6.5.0 ('Isn't she lovely') built on Oct 20 2013 12:50:05
Writing library                : libebml v1.3.0 + libmatroska v1.4.1
Video
ID                             : 1
Format                         : AVC
Format/Info                    : Advanced Video Codec
Format profile                 : [url=mailto:Baseline@L3.1]Baseline@L3.1[/url]
Format settings, CABAC         : No
Format settings, ReFrames      : 1 frame
Codec ID                       : V_MPEG4/ISO/AVC
Duration                       : 1h 35mn
Bit rate                       : 2 500 Kbps
Width                          : 1 024 pixels
Height                         : 432 pixels
Display aspect ratio           : 2.40:1
Frame rate mode                : Constant
Frame rate                     : 23.976 fps
Color space                    : YUV
Chroma subsampling             : 4:2:0
Bit depth                      : 8 bits
Scan type                      : Progressive
Bits/(Pixel*Frame)             : 0.236
Stream size                    : 1.61 GiB (85%)
Title                          : Тёмный мир: Равновесие (2013)
Writing library                : x264 core 120
Encoding settings              : cabac=0 / ref=1 / deblock=1:0:0 / analyse=0x1:0x111 / me=hex / subme=2 / psy=1 / psy_rd=1.00:0.00 / mixed_ref=0 / me_range=16 / chroma_me=1 / trellis=0 / 8x8dct=0 / cqm=0 / deadzone=21,11 / fast_pskip=1 / chroma_qp_offset=0 / threads=6 / sliced_threads=0 / nr=0 / decimate=1 / interlaced=0 / bluray_compat=0 / constrained_intra=0 / bframes=0 / weightp=0 / keyint=250 / keyint_min=23 / scenecut=40 / intra_refresh=0 / rc_lookahead=10 / rc=abr / mbtree=1 / bitrate=2500 / ratetol=1.0 / qcomp=0.60 / qpmin=0 / qpmax=69 / qpstep=4 / ip_ratio=1.40 / aq=1:1.00
Default                        : Yes
Forced                         : No
Audio
ID                             : 2
Format                         : AC-3
Format/Info                    : Audio Coding 3
Mode extension                 : CM (complete main)
Format settings, Endianness    : Big
Codec ID                       : A_AC3
Duration                       : 1h 35mn
Bit rate mode                  : Constant
Bit rate                       : 384 Kbps
Channel(s)                     : 6 channels
Channel positions              : Front: L C R, Side: L R, LFE
Sampling rate                  : 48.0 KHz
Bit depth                      : 16 bits
Compression mode               : Lossy
Stream size                    : 261 MiB (13%)
Language                       : Russian
Default                        : Yes
Forced                         : No
Скриншоты:

Время раздачи: 24/7 (круглосуточно)
[Профиль] [ЛС]

Создавать темы 05-Янв-2014 11:43 (спустя 7 минуты)

Топик был перенесен из форума Зарубежное кино в форум Отечественное кино

romeo69
 

messer20080 ®

Пол: Мужской

Стаж: 7 года 11 месяца

Сообщений: 1927

Создавать темы 05-Янв-2014 11:45 (спустя 9 минуты)

[Цитировать]

Шото я не проснулся)))
[Профиль] [ЛС]
Показать сообщения:    
Ответить на тему

Текущее время: 28-Фев 00:01

Часовой пояс: UTC + 3



Вы не можете начинать темы
Вы не можете отвечать на сообщения
Вы не можете редактировать свои сообщения
Вы не можете удалять свои сообщения
Вы не можете голосовать в опросах
Вы не можете прикреплять файлы к сообщениям
Вы не можете скачивать файлы