Контроль / Control (Тим Хантер / Tim Hunter) (2004., триллер, криминал, драма, Web-DLRip)

Ответить на тему
 
Автор Сообщение

AsPirinS ®

Пол: Не указан

Стаж: 7 года 2 месяца

Сообщений: 228

Создавать темы 05-Янв-2014 20:12

[Цитировать]

Контроль / Control Год выпуска: 2004
Страна: Германия, США, Аруба
Жанр: триллер, криминал, драма
Продолжительность: 01:38:58
Перевод: Профессиональный (многоголосый закадровый)
Русские субтитры: нет
Режиссер:
Тим Хантер / Tim Hunter
В ролях:
Рэй Лиотта / Ray Liotta, Уиллем Дефо / Willem Dafoe, Мишель Родригес / Michelle Rodriguez, Стивен Ри / Stephen Rea, Полли Уокер / Polly Walker, Кэтлин Робертсон / Kathleen Robertson, Тим ДиКей / Tim DeKay
Описание:
В последние секунды своей жизни Ли Рэй Оливер вспоминал детство... Смертельная инъекция заполняла тело психопата-убийцы ядовитой жидкостью... В конце концов, глаза Оливера закрылись, и врач констатировал наступление смерти...
Когда свидетели, которым полагалось присутствовать при исполнении смертного приговора, разошлись, тело Ли Рэя в черном целлофановом мешке увезли в другую комнату, где спустя некоторое время Оливер проснулся и узнал, что ему предлагается стать участником секретного медицинского эксперимента...

Качество: WEB-DLRip
Источник: WEB-DL 720p (Видео: AVC, 1280х720 (16:9))
Формат: AVI
Видео: 720x400 (16:9), 23.976 fps, XviD ~848 kbps, 0.123 bit/pixel
Аудио: MP3, 48.0 kHz, ~192 kbps, 2ch

MediaInfo

General
Complete name : Y:Мои рипы700Control.2004.WEB-DLRip_[new-team]_by_DrStandByControl.2004.WEB-DLRip_[new-team]_by_DrStandBy.avi
Format : AVI
Format/Info : Audio Video Interleave
File size : 743 MiB
Duration : 1h 38mn
Overall bit rate : 1 049 Kbps
Writing application : VirtualDubMod 1.5.10.3 | www.virtualdub-fr.org || (build 2550/release)
Writing library : VirtualDubMod build 2550/release
Video
ID : 0
Format : MPEG-4 Visual
Format profile : Advanced Simple@L5
Format settings, BVOP : 1
Format settings, QPel : No
Format settings, GMC : No warppoints
Format settings, Matrix : Custom
Codec ID : XVID
Codec ID/Hint : XviD
Duration : 1h 38mn
Bit rate : 848 Kbps
Width : 720 pixels
Height : 400 pixels
Display aspect ratio : 16:9
Frame rate : 23.976 fps
Color space : YUV
Chroma subsampling : 4:2:0
Bit depth : 8 bits
Scan type : Progressive
Compression mode : Lossy
Bits/(Pixel*Frame) : 0.123
Stream size : 600 MiB (81%)
Writing library : XviD 1.2.1 (UTC 2008-12-04)
Audio
ID : 1
Format : MPEG Audio
Format version : Version 1
Format profile : Layer 3
Codec ID : 55
Codec ID/Hint : MP3
Duration : 1h 38mn
Bit rate mode : Constant
Bit rate : 192 Kbps
Channel(s) : 2 channels
Sampling rate : 48.0 KHz
Compression mode : Lossy
Stream size : 136 MiB (18%)
Alignment : Aligned on interleaves
Interleave, duration : 42 ms (1.00 video frame)
Interleave, preload duration : 504 ms
Writing library : LAME3.99r
Encoding settings : -m s -V 4 -q 0 -lowpass 18.6 -b 192

Скриншоты

[Профиль] [ЛС]
Показать сообщения:    
Ответить на тему

Текущее время: 09-Мар 07:30

Часовой пояс: UTC + 3



Вы не можете начинать темы
Вы не можете отвечать на сообщения
Вы не можете редактировать свои сообщения
Вы не можете удалять свои сообщения
Вы не можете голосовать в опросах
Вы не можете прикреплять файлы к сообщениям
Вы не можете скачивать файлы