Дворецкий / The Butler (Ли Дэниелс) (2013., драма, биография, BDRip 1080p) VO

Ответить на тему
 
Автор Сообщение

AsPirinS ®

Пол: Не указан

Стаж: 7 года 2 месяца

Сообщений: 228

Создавать темы 05-Янв-2014 20:21

[Цитировать]

-"Дворецкий"- Год выхода: 2013
Жанр: драма, биография
Страна: США
Студия: Follow Through Productions, Salamander Pictures
Продолжительность: 02:12:06
Перевод: Любительский одноголосный, закадровый
- VANO
Режиссер:
Ли Дэниелс
В ролях:
Форест Уитакер, Опра Уинфри, Джон Кьюсак, Джейн Фонда, Терренс Ховард, Кьюба Гудинг мл., Ленни Кравиц, Дэвид Ойелоуо, Ванесса Редгрейв, Алан Рикман и др.

Описание фильма:
В фильме, основанном на статье из Washington Post, рассказывается о дворецком Юджине Аллене, служившем в Белом Доме под началом восьми разных президентов.


Кодек: H.264/MPEG-4 AVC
Формат: MKV
Качество: BDRip 1080p
Видео: ~ 10,3 Mbps, 1920x1040, 23,976 fps
Аудио RUS: AC3, 48.0 KHz, 6 ch, 384 kbps
Аудио ENG: DTS, 48.0 KHz, 6 ch, 1500kbps
Субтитры: Английские
-

Скриншоты

-

MediaInfo

Общее
Уникальный идентификатор : 202654765408904139675063109043787791381 (0x9875E35B014F7341B6805ED90EA1FC15)
Полное имя : The.Butler.2013.1080p.mkv
Формат : Matroska
Версия формата : Version 2
Размер файла : 11,2 Гбайт
Продолжительность : 2 ч. 12 м.
Общий поток : 12,2 Мбит/сек
Название фильма : The.Butler.2013.BluRay.1080p.DTS.x264-CHD
Дата кодирования : UTC 2014-01-05 13:25:54
Программа кодирования : mkvmerge v2.9.9 ('Tutu') built on Nov 25 2009 21:13:32
Библиотека кодирования : libebml v0.7.9 + libmatroska v0.8.1
Видео
Идентификатор : 1
Формат : AVC
Формат/Информация : Advanced Video Codec
Профиль формата : High@L4.1
Параметр CABAC формата : Да
Параметр ReFrames формата : 5 кадров
Идентификатор кодека : V_MPEG4/ISO/AVC
Продолжительность : 2 ч. 12 м.
Битрейт : 10,3 Мбит/сек
Ширина : 1920 пикселей
Высота : 1040 пикселей
Соотношение сторон : 1,85:1
Режим частоты кадров : Постоянный
Частота кадров : 23,976 кадра/сек
Цветовое пространство : YUV
Субдискретизация насыщенности : 4:2:0
Битовая глубина : 8 бит
Тип развёртки : Прогрессивная
Бит/(Пиксели*Кадры) : 0.215
Размер потока : 9,26 Гбайт (82%)
Библиотека кодирования : x264 core 138 r2358 9e941d1
Настройки программы : cabac=1 / ref=5 / deblock=1:-3:-3 / analyse=0x3:0x113 / me=umh / subme=11 / psy=1 / psy_rd=1.05:0.10 / mixed_ref=1 / me_range=48 / chroma_me=1 / trellis=2 / 8x8dct=1 / cqm=0 / deadzone=21,11 / fast_pskip=0 / chroma_qp_offset=-2 / threads=18 / lookahead_threads=1 / sliced_threads=0 / nr=0 / decimate=1 / interlaced=0 / bluray_compat=0 / constrained_intra=0 / bframes=6 / b_pyramid=2 / b_adapt=2 / b_bias=0 / direct=3 / weightb=1 / open_gop=0 / weightp=2 / keyint=250 / keyint_min=23 / scenecut=40 / intra_refresh=0 / rc_lookahead=40 / rc=2pass / mbtree=0 / bitrate=10289 / ratetol=2.0 / qcomp=0.70 / qpmin=0 / qpmax=69 / qpstep=4 / cplxblur=20.0 / qblur=0.5 / vbv_maxrate=40000 / vbv_bufsize=30000 / nal_hrd=none / ip_ratio=1.40 / pb_ratio=1.30 / aq=2:1.00
Язык : English
Default : Нет
Forced : Нет
Аудио #1
Идентификатор : 2
Формат : AC-3
Формат/Информация : Audio Coding 3
Расширение режима : CM (complete main)
Параметр Endianness формата : Big
Идентификатор кодека : A_AC3
Продолжительность : 2 ч. 12 м.
Вид битрейта : Постоянный
Битрейт : 384 Кбит/сек
Каналы : 6 каналов
Расположение каналов : Front: L C R, Side: L R, LFE
Частота : 48,0 КГц
Битовая глубина : 16 бит
Метод сжатия : С потерями
Размер потока : 363 Мбайт (3%)
Заголовок : AC3.384Kbps (6ch) Russian (VO Vano)
Язык : Russian
Default : Да
Forced : Нет
Аудио #2
Идентификатор : 3
Формат : DTS
Формат/Информация : Digital Theater Systems
Режим : 16
Параметр Endianness формата : Big
Идентификатор кодека : A_DTS
Продолжительность : 2 ч. 12 м.
Вид битрейта : Постоянный
Битрейт : 1509 Кбит/сек
Каналы : 6 каналов
Расположение каналов : Front: L C R, Side: L R, LFE
Частота : 48,0 КГц
Битовая глубина : 24 бит
Метод сжатия : С потерями
Задержка видео : 11 мс.
Размер потока : 1,39 Гбайт (12%)
Заголовок : DTS.1509.Kbps (6ch) English
Язык : English
Default : Нет
Forced : Нет
Текст #1
Идентификатор : 4
Формат : UTF-8
Идентификатор кодека : S_TEXT/UTF8
Идентификатор кодека/Информация : UTF-8 Plain Text
Заголовок : English (Full)
Язык : English
Default : Нет
Forced : Нет
Текст #2
Идентификатор : 5
Формат : UTF-8
Идентификатор кодека : S_TEXT/UTF8
Идентификатор кодека/Информация : UTF-8 Plain Text
Заголовок : English (SDH)
Язык : English
Default : Нет
Forced : Нет
Текст #3
Идентификатор : 6
Формат : UTF-8
Идентификатор кодека : S_TEXT/UTF8
Идентификатор кодека/Информация : UTF-8 Plain Text
Заголовок : English (SDH-Colored)
Язык : English
Default : Нет
Forced : Нет
Меню
00:00:00.000 : en:00:00:00.000
00:07:27.072 : en:00:07:27.072
00:13:51.497 : en:00:13:51.497
00:22:26.679 : en:00:22:26.679
00:28:57.736 : en:00:28:57.736
00:36:38.530 : en:00:36:38.530
00:45:13.294 : en:00:45:13.294
00:51:56.196 : en:00:51:56.196
00:59:22.476 : en:00:59:22.476
01:07:08.399 : en:01:07:08.399
01:15:09.380 : en:01:15:09.380
01:20:14.101 : en:01:20:14.101
01:27:25.866 : en:01:27:25.866
01:35:12.707 : en:01:35:12.707
01:42:12.293 : en:01:42:12.293
01:49:09.251 : en:01:49:09.251
01:56:22.142 : en:01:56:22.142
02:04:42.058 : en:02:04:42.058
[Профиль] [ЛС]
Показать сообщения:    
Ответить на тему

Текущее время: 07-Мар 20:30

Часовой пояс: UTC + 3



Вы не можете начинать темы
Вы не можете отвечать на сообщения
Вы не можете редактировать свои сообщения
Вы не можете удалять свои сообщения
Вы не можете голосовать в опросах
Вы не можете прикреплять файлы к сообщениям
Вы не можете скачивать файлы