BBC: Планета Земля / BBC: Planet Earth (Аластер Фовергилл) [2006, Документальный, BDRip]

Ответить на тему
 
Автор Сообщение

messer20080 ®

Пол: Мужской

Стаж: 8 года

Сообщений: 1927

Создавать темы 06-Янв-2014 00:40

[Цитировать]

BBC: Планета Земля / BBC: Planet Earth
Год выпуска: 2006
Страна: Великобритания, Германия, Канада, Япония, США
Жанр: Документальный
Продолжительность: 11x~00:51:21
Перевод: Профессиональный (одноголосый закадровый) Николай Дроздов
Русские субтитры: есть
Студия: BBC Television Centre, Discovery Channel, Bayerischer Rundfunk (BR)
Режиссер: Аластер Фовергилл
Описание: Создатели сериала «Голубая планета» сняли новый фильм, показывающий Землю такой, какой ее еще никто не видел прежде. Невероятные по красоте пейзажи и самые заповедные и малоизученные уголки нашей планеты. Четыре года напряженной работы и беспрецедентный для документального фильма бюджет позволили создать уникальный по масштабности фильм. А революционные режимы сверхскоростной съемки и детализации картинки, сделали возможным показать великолепие нашей природы во всех подробностях.
Доп. информация: В ролях: Дэвид Аттенборо, Сигурни Уивер, Хув Корди, Хув Корди, Даг Аллен, Марк Линфилд, Майк Холдинг, Таня Дженкинс, Майкл Келем, Питер Перлштейн, Джефф Уилсон
Сэмпл: http://multi-up.com/928440
качество: BDRip
формат: MKV
Кодек: x264
Видео: 1920х1080 (16:9), 6500 Kbps, 23.976 fps, 0.131 bit/pixel
Аудио #1: 48.0 kHz, AC3 Dolby Digital, 3/2 (L,C,R,l,r) + LFE ch, 384 kbps [Rus] Николай Дроздов
Аудио #2: 48.0 kHz, AC3 Dolby Digital, 3/2 (L,C,R,l,r) + LFE ch, 448 kbps [Eng]

MediaInfo

General
Unique ID : 207513695293758883072824489274659978625 (0x9C1DAF183E39CF20B64B71E4753A3D81)
Complete name : E:BBC.Планета.Земля.2006.x264.BDRip.1080pОт полюса до полюса (From Pole to Pole).mkv
Format : Matroska
Format version : Version 4 / Version 2
File size : 2.62 GiB
Duration : 51mn 16s
Overall bit rate : 7 316 Kbps
Encoded date : UTC 2013-02-16 17:27:38
Writing application : mkvmerge v6.0.0 ('Coming Up For Air') built on Jan 20 2013 09:52:00
Writing library : libebml v1.3.0 + libmatroska v1.4.0
Video
ID : 1
Format : AVC
Format/Info : Advanced Video Codec
Format profile : High@L4.1
Format settings, CABAC : Yes
Format settings, ReFrames : 4 frames
Codec ID : V_MPEG4/ISO/AVC
Duration : 51mn 16s
Bit rate : 6 500 Kbps
Width : 1 920 pixels
Height : 1 080 pixels
Display aspect ratio : 16:9
Frame rate mode : Constant
Frame rate : 23.976 fps
Color space : YUV
Chroma subsampling : 4:2:0
Bit depth : 8 bits
Scan type : Progressive
Bits/(Pixel*Frame) : 0.131
Stream size : 2.27 GiB (87%)
Writing library : x264 core 129 r2245 bc13772
Encoding settings : cabac=1 / ref=4 / deblock=1:-1:-1 / analyse=0x3:0x133 / me=umh / subme=11 / psy=1 / psy_rd=1.00:0.10 / mixed_ref=1 / me_range=64 / chroma_me=1 / trellis=2 / 8x8dct=1 / cqm=0 / deadzone=21,11 / fast_pskip=0 / chroma_qp_offset=-3 / threads=12 / lookahead_threads=2 / sliced_threads=0 / nr=0 / decimate=0 / interlaced=0 / bluray_compat=0 / constrained_intra=0 / bframes=5 / b_pyramid=2 / b_adapt=2 / b_bias=0 / direct=3 / weightb=1 / open_gop=0 / weightp=2 / keyint=240 / keyint_min=23 / scenecut=40 / intra_refresh=0 / rc_lookahead=60 / rc=2pass / mbtree=1 / bitrate=6500 / ratetol=1.0 / qcomp=0.60 / qpmin=0 / qpmax=69 / qpstep=4 / cplxblur=20.0 / qblur=0.5 / ip_ratio=1.40 / aq=1:0.80
Language : English
Default : Yes
Forced : No
Audio #1
ID : 2
Format : AC-3
Format/Info : Audio Coding 3
Mode extension : CM (complete main)
Format settings, Endianness : Big
Codec ID : A_AC3
Duration : 51mn 16s
Bit rate mode : Constant
Bit rate : 384 Kbps
Channel(s) : 6 channels
Channel positions : Front: L C R, Side: L R, LFE
Sampling rate : 48.0 KHz
Bit depth : 16 bits
Compression mode : Lossy
Stream size : 141 MiB (5%)
Title : AC3 5.1ch 384 kbps - Одноголосый, Николай Дроздов
Language : Russian
Default : Yes
Forced : No
Audio #2
ID : 3
Format : AC-3
Format/Info : Audio Coding 3
Mode extension : CM (complete main)
Format settings, Endianness : Big
Codec ID : A_AC3
Duration : 51mn 16s
Bit rate mode : Constant
Bit rate : 448 Kbps
Channel(s) : 6 channels
Channel positions : Front: L C R, Side: L R, LFE
Sampling rate : 48.0 KHz
Bit depth : 16 bits
Compression mode : Lossy
Stream size : 164 MiB (6%)
Title : AC3 5.1ch 448 kbps - Английский
Language : English
Default : No
Forced : No
Text
ID : 4
Format : PGS
Muxing mode : zlib
Codec ID : S_HDMV/PGS
Codec ID/Info : The same subtitle format used on BDs/HD-DVDs
Title : Русские [PGS]
Language : Russian
Default : No
Forced : No

Скриншоты

Список эпизодов

1. От полюса до полюса / From Pole to Pole
Сто лет назад население Земли составляло 1,5 миллиарда человек, а сегодня на хрупкой планете нас больше 6 миллиардов. И, тем не менее, на Земле еще остались места, где еще не ступала нога человека. В этой серии вы увидите последние нетронутые уголки дикой природы, какими вы их еще никогда не видели.
2. Горы / Mountains
На свой страх и риск люди поднимаются на самые высокие вершины планеты. Некоторые считают, что, взбираясь на большую гору, они покоряют ее. Но на самом деле мы здесь только гости. Это холодный, чуждый нам мир неземной красоты...
3. Пресная вода / Fresh Water
Пресная вода составляет всего 3% от общих запасов воды на нашей планете, но бесценные источники пресной воды преподносят много сюрпризов. Вся жизнь на Земле в конечном счете зависит от пресной воды.
4. Пещеры / Caves
Это один из самых неизведанных рубежей нашей планеты. Таинственный мир заглянуть в который отваживаются только самые отважные смельчаки. Мир в котором под нашими ногами на многие километры тянутся лабиринты пещер и тоннелей.
5. Пустыни / Deserts
Пустыни занимают треть поверхности суши Земли. Огромные рубцы на лице планеты кажутся безжизненными. Но, как ни странно, это не так. Во всех пустынях всегда была и продолжается жизнь.
6. Ледяные миры / Ice Worlds
Оба полюса нашей планеты покрыты льдом. Это самые обширные и самые суровые пустыни на планете. Больше нигде в мире смена времен года не происходит так резко, как здесь. Экстремальные климатические условия делают жизнь здешних обитателей настоящей борьбой за выживание.
7. Великие равнины / Great Plains
Обширные безлесные равнины, бескрайние просторы, тишина: Но ощущение пустоты это иллюзия. Равнины нашей планеты дают пищу самым многочисленным скоплениям животных на Земле.
8. Джунгли / Jungles
Это оранжерея нашей планеты. Влажные тропические леса занимают лишь 3% поверхности суши, однако в них обитает больше половины биологических видов планеты. Каким же образом здесь уживается такое невиданное множество разнообразных растений и животных?
9. Мелководные моря / Shallow Seas
Континенты нашей планеты окружены мелководными морями. Их глубина редко превышает более 200 метров, ведь они расположены на континентальных шельфах, а шельфы иногда простираются на сотни километров до своего обрыва в темные глубины. Мелководные моря составляют лишь 8% поверхности мирового океана, но в них обитает подавляющее большинство морских животных.
10. Сезонные леса / Seasonal Forests
Деревья, бесспорно, самые величественные из всех живых существ. Некоторые из них являются самыми крупными живыми организмами на Земле и это самые высокие деревья в мире. Лиственные и хвойные деревья, растущие в сезонных областях нашей планеты, образуют самые обширные леса на Земле. Их размеры поражают воображение.
11. Глубины океанов / Ocean Deep
Мир за пределами суши. Океан. Он покрывает 2/3 земной поверхности, при этом большая его часть для нас недосягаема. Жизнь обитателей океанских глубин проходит в постоянных поисках пищи и в борьбе за выживание.
[Профиль] [ЛС]
Показать сообщения:    
Ответить на тему

Текущее время: 07-Мар 15:56

Часовой пояс: UTC + 3



Вы не можете начинать темы
Вы не можете отвечать на сообщения
Вы не можете редактировать свои сообщения
Вы не можете удалять свои сообщения
Вы не можете голосовать в опросах
Вы не можете прикреплять файлы к сообщениям
Вы не можете скачивать файлы