Космические горизонты / Cosmic Vistas (Дерек Рейд) (Документальный, исследование, космос, 2013) HDTV [H.264/1080i] [1,3-5 серия из 6]

Ответить на тему
 
Автор Сообщение

messer20080 ®

Пол: Мужской

Стаж: 8 года

Сообщений: 1927

Создавать темы 06-Янв-2014 01:31

[Цитировать]

-Космические горизонты / Cosmic Vistas (2013) HDTV [H.264/1080i] [1,3-5 серия из 6]- Режиссер / Телекомпания: Дерек Рейд / The Canadian Film, High Fidelity HDTV Media
Страна: Канада
Год выпуска: 2013
Жанр: Документальный, исследование, космос
Описание: Природа всегда бросала дерзкий вызов путешественникам, заставляя их стремиться всё дальше за горизонт. Сейчас в эру космических полетов люди отправляются в бескрайние просторы вселенной, мечтая познать другие миры. К тому же мы можем наблюдать за Солнцем, Луной и другими планетами с помощью космических станций и оптических приборов, направленных во все концы Солнечной системы. Способность видеть через огромные расстояния дает человеку возможность проникнуть в необъятные просторы космоса. Так горизонт отходит от нас все дальше и дальше.
Продолжительность: 4x ~00:25:50
Перевод: Одноголосый закадровый (профессиональный)
Видеокодек: MPEG-4 AVC/H.264
Битрейт видео: ~8 450 Кбит/с
Размер кадра: 1920 x 1080
Частота кадров: 25.000 fps
Качество видео: HDTV [1080i]
Аудио:
1. [русский] AC3, 2.0 ch, 192 Кбит/с
Содержание:

Серия 1. Окно в другие миры / Windows To Other Worlds and Fountain of Creation

Скриншоты:

Серия 3. Пограничная зона / Borderland and Red Dawn

Скриншоты:

Серия 4. Боги гравитации / Lords of Gravity and Outer Limits

Скриншоты:

Серия 5. Скрытый рай / Hidden Havens and Icy Gems

Описание:Скриншоты:
Скриншоты:

MediaInfo (параметры всех серий одинаковы)

General
Unique ID : 195654256041077192207898911124075120043 (0x9331A3987E9925B4978676C9820105AB)
Complete name : D:\TORRENTS\!!! РЕЛИЗЫ\Cosmic.Vistas.HDTV.1080i.(4.iz.4)\Cosmic Vistas-1.mkv
Format : Matroska
Format version : Version 2
File size : 1.60 GiB
Duration : 25mn 57s
Overall bit rate mode : Variable
Overall bit rate : 8 816 Kbps
Encoded date : UTC 2012-09-05 15:43:00
Writing application : mkvmerge v5.6.0 ('Kenya Kane') built on May 27 2012 16:44:04
Writing library : libebml v1.2.3 + libmatroska v1.3.0
Video
ID : 1
Format : AVC
Format/Info : Advanced Video Codec
Format profile : High@L4.0
Format settings, CABAC : Yes
Format settings, ReFrames : 2 frames
Format settings, GOP : M=2, N=13
Codec ID : V_MPEG4/ISO/AVC
Duration : 25mn 57s
Bit rate mode : Variable
Bit rate : 8 448 Kbps
Maximum bit rate : 22.0 Mbps
Width : 1 920 pixels
Height : 1 080 pixels
Display aspect ratio : 16:9
Frame rate mode : Constant
Frame rate : 25.000 fps
Color space : YUV
Chroma subsampling : 4:2:0
Bit depth : 8 bits
Scan type : Progressive
Bits/(Pixel*Frame) : 0.163
Stream size : 1.53 GiB (96%)
Default : Yes
Forced : No
Audio
ID : 2
Format : AC-3
Format/Info : Audio Coding 3
Format profile : Dolby Digital
Mode extension : CM (complete main)
Format settings, Endianness : Big
Codec ID : A_AC3
Duration : 25mn 57s
Bit rate mode : Constant
Bit rate : 192 Kbps
Channel(s) : 2 channels
Channel positions : Front: L R
Sampling rate : 48.0 KHz
Bit depth : 16 bits
Compression mode : Lossy
Stream size : 35.7 MiB (2%)
Default : Yes
Forced : No
Пожалуйста, не уходите с раздачи - помогите докачать другим. Если понравился релиз - жмите кнопку "Спасибо"!
Время раздачи: 24 / 7
[Профиль] [ЛС]
Показать сообщения:    
Ответить на тему

Текущее время: 05-Мар 16:39

Часовой пояс: UTC + 3



Вы не можете начинать темы
Вы не можете отвечать на сообщения
Вы не можете редактировать свои сообщения
Вы не можете удалять свои сообщения
Вы не можете голосовать в опросах
Вы не можете прикреплять файлы к сообщениям
Вы не можете скачивать файлы