NG. Когда крокодилы ели динозавров / When crocs ate dinosaurs (Дженни Кубо / National Geographic) (Документальный, 2009) HDTV [H.264/1080i]

Ответить на тему
 
Автор Сообщение

messer20080 ®

Пол: Мужской

Стаж: 7 года 11 месяца

Сообщений: 1927

Создавать темы 06-Янв-2014 01:44

[Цитировать]

-NG. Когда крокодилы ели динозавров / When crocs ate dinosaurs (2009) HDTV [H.264/1080i]- Режиссер / Телекомпания: Дженни Кубо / National Geographic
Год выпуска: 2009
Страна: Великобритания
Жанр: Документальный
Описание:
Палеонтолог Пол Серено расскажет всё о невероятном доисторическом хищнике - гигантском древнем крокодиле.
Продолжительность: 00:46:56
Перевод: Одноголосый закадровый, профессиональный
Формат файла: MKV
Видеокодек: MPEG-4 AVC/H.264
Битрейт видео: ~7 357 Kbps
Размер кадра: 1920x1080
Частота кадров: 25.000 fps
Качество видео: HDTV [1080i]
Aудио: AC3, 448 Kbps, 5.1 ch, 48.0 KHz

MediaInfo

General
Unique ID : 205365308024387519376209844069042884064 (0x9A7FEB6CA03213F7B9EC63ECFDC60DE0)
Complete name : L:\Фильмы\Документальные\Когда крокодилы ели динозавров.mkv
Format : Matroska
Format version : Version 4 / Version 2
File size : 2.61 GiB
Duration : 46mn 56s
Overall bit rate : 7 964 Kbps
Encoded date : UTC 2014-01-05 10:19:12
Writing application : mkvmerge v6.6.0 ('The Edge Of The In Between') built on Dec 1 2013 17:55:00
Writing library : libebml v1.3.0 + libmatroska v1.4.1
Video
ID : 1
Format : AVC
Format/Info : Advanced Video Codec
Format profile : High@L4.0
Format settings, CABAC : Yes
Format settings, ReFrames : 3 frames
Codec ID : V_MPEG4/ISO/AVC
Duration : 46mn 56s
Bit rate : 7 357 Kbps
Width : 1 920 pixels
Height : 1 080 pixels
Display aspect ratio : 16:9
Frame rate mode : Constant
Frame rate : 25.000 fps
Standard : Component
Color space : YUV
Chroma subsampling : 4:2:0
Bit depth : 8 bits
Scan type : Interlaced
Scan order : Top Field First
Bits/(Pixel*Frame) : 0.142
Stream size : 2.41 GiB (92%)
Default : Yes
Forced : No
Color primaries : BT.709
Transfer characteristics : BT.709
Matrix coefficients : BT.709
Audio
ID : 2
Format : AC-3
Format/Info : Audio Coding 3
Mode extension : CM (complete main)
Format settings, Endianness : Big
Codec ID : A_AC3
Duration : 46mn 56s
Bit rate mode : Constant
Bit rate : 448 Kbps
Channel count : 6 channels
Channel positions : Front: L C R, Side: L R, LFE
Sampling rate : 48.0 KHz
Bit depth : 16 bits
Compression mode : Lossy
Stream size : 150 MiB (6%)
Language : Russian
Default : Yes
Forced : No
Скриншоты:

[Профиль] [ЛС]

Создавать темы 18-Апр-2014 15:20 (спустя 3 месяца 12 дня)

Топик был перенесен из форума Документальные фильмы / Передачи в форум National Geographic

messer20080
 
Показать сообщения:    
Ответить на тему

Текущее время: 25-Фев 19:17

Часовой пояс: UTC + 3



Вы не можете начинать темы
Вы не можете отвечать на сообщения
Вы не можете редактировать свои сообщения
Вы не можете удалять свои сообщения
Вы не можете голосовать в опросах
Вы не можете прикреплять файлы к сообщениям
Вы не можете скачивать файлы