(Шансон) VA - Шансон. Блатной - 2005, FLAC (image+.cue), lossless

Ответить на тему
 
Автор Сообщение

Viktor59 ®

Пол: Мужской

Стаж: 8 года

Сообщений: 886

Откуда: Измаил

Создавать темы 06-Янв-2014 20:33

[Цитировать]

VA / Шансон. Блатной (2005)
Жанр: Шансон
Страна-производитель диска: Украина / Россия
Год издания: 2005
Издатель (лейбл): Odissey Company
Номер по каталогу: 00.12.05.0706
Аудиокодек: FLAC (*.flac)
Тип рипа: image+.cue
Битрейт аудио: lossless
Продолжительность: 00:59:23
Наличие сканов в содержимом раздачи: да
Треклист:
01. Николай Йоссер – Идёт этап
02. Влад Забелин – Вор, воруй
03. Евгений Чужой – Телогреечка
04. Руслан Казанцев – Курган
05. Сергей Крава – За спиной четыре ходки
06. Светлана Питерская – Приговорённый
07. Яша Боярский – Сыктывкар
08. Пальцы веером – Меня ищут менты
09. Дмитрий Сулей – Воля законная
10. Сергей Гросс – Вольная
11. Николай Йоссер и Светлана Питерская – Берег надежды
12. Геннадий Сокол – Амнистия
13. Дмитрий Тамбовский – Письмо
14. Геннадий Баже – Колыма
15. Андрей Школин – Новгодний этап

Лог создания рипа

Exact Audio Copy V1.0 beta 3 from 29. August 2011
Отчёт EAC об извлечении, выполненном 10. февраля 2013, 16:50
Various Artists / Шансон. Блатной
Дисковод: PIONEER DVD-RW DVR-219L Adapter: 3 ID: 0
Режим чтения : ДостоверностьИспользование точного потока : ДаОтключение кэша аудио : ДаИспользование указателей C2 : Нет
Коррекция смещения при чтении : 6Способность читать области Lead-in и Lead-out : НетЗаполнение пропущенных сэмплов тишиной : ДаУдаление блоков с тишиной в начале и конце : НетПри вычислениях CRC использовались нулевые сэмплы : ДаИнтерфейс : Установленный внешний ASPI-интерфейс
Выходной формат : Пользовательский кодировщикВыбранный битрейт : 128 kBit/sКачество : ВысокийДобавление ID3-тега : НетУтилита сжатия : C:\Program Files\FLAC\flac.exeДополнительные параметры : -V -8 -T "Date=%year%" -T "Genre=%genre%" %source%
TOC извлечённого CD
Трек | Старт | Длительность | Начальный сектор | Конечный сектор --------------------------------------------------------------------- 1 | 0:00.00 | 4:06.37 | 0 | 18486 2 | 4:06.37 | 4:56.00 | 18487 | 40686 3 | 9:02.37 | 3:27.37 | 40687 | 56248 4 | 12:29.74 | 3:57.00 | 56249 | 74023 5 | 16:26.74 | 2:46.00 | 74024 | 86473 6 | 19:12.74 | 3:27.00 | 86474 | 101998 7 | 22:39.74 | 4:48.00 | 101999 | 123598 8 | 27:27.74 | 2:45.00 | 123599 | 135973 9 | 30:12.74 | 5:42.00 | 135974 | 161623 10 | 35:54.74 | 3:50.00 | 161624 | 178873 11 | 39:44.74 | 4:46.00 | 178874 | 200323 12 | 44:30.74 | 3:33.00 | 200324 | 216298 13 | 48:03.74 | 3:46.00 | 216299 | 233248 14 | 51:49.74 | 3:24.00 | 233249 | 248548 15 | 55:13.74 | 4:10.00 | 248549 | 267298
Характеристики диапазона извлечения и сообщения об ошибках
Выбранный диапазон
Имя файла F:\Mp3\ЗАЛИВКА 2\2005 - VA - Шансон. Блатной\Various Artists - Шансон. Блатной.wav
Пиковый уровень 100.0 % Скорость извлечения 1.7 X Качество диапазона 100.0 % CRC теста 20FA7424 CRC копии 20FA7424 Копирование... OK
Ошибок не произошло
Конец отчёта
==== Контрольная сумма отчёта 842BDCFBE76D55E51B4B57A72D28080B07BAE114A3F0B47CF78FCBA9550C1302 ====

Содержание индексной карты (.CUE)

REM GENRE ChansonREM DATE 2005REM DISCID D60DEB0FREM COMMENT "ExactAudioCopy v1.0b3"PERFORMER "Various Artists"TITLE "Шансон. Блатной"FILE "Various Artists - Шансон. Блатной.flac" WAVE TRACK 01 AUDIO TITLE "Идёт этап" PERFORMER "Николай Йоссер" INDEX 01 00:00:00 TRACK 02 AUDIO TITLE "Вор, воруй" PERFORMER "Влад Забелин" INDEX 01 04:06:37 TRACK 03 AUDIO TITLE "Телогреечка" PERFORMER "Евгений Чужой" INDEX 01 09:02:37 TRACK 04 AUDIO TITLE "Курган" PERFORMER "Руслан Казанцев" INDEX 01 12:29:74 TRACK 05 AUDIO TITLE "За спиной четыре ходки" PERFORMER "Сергей Крава" INDEX 01 16:26:74 TRACK 06 AUDIO TITLE "Приговорённый" PERFORMER "Светлана Питерская" INDEX 01 19:12:74 TRACK 07 AUDIO TITLE "Сыктывкар" PERFORMER "Яша Боярский" INDEX 01 22:39:74 TRACK 08 AUDIO TITLE "Меня ищут менты" PERFORMER "Пальцы веером" INDEX 01 27:27:74 TRACK 09 AUDIO TITLE "Воля законная" PERFORMER "Дмитрий Сулей" INDEX 01 30:12:74 TRACK 10 AUDIO TITLE "Вольная" PERFORMER "Сергей Гросс" INDEX 01 35:54:74 TRACK 11 AUDIO TITLE "Берег надежды" PERFORMER "Николай Йоссер и Светлана Питерская" INDEX 01 39:44:74 TRACK 12 AUDIO TITLE "Амнистия" PERFORMER "Геннадий Сокол" INDEX 01 44:30:74 TRACK 13 AUDIO TITLE "Письмо" PERFORMER "Дмитрий Тамбовский" INDEX 01 48:03:74 TRACK 14 AUDIO TITLE "Колыма" PERFORMER "Геннадий Баже" INDEX 01 51:49:74 TRACK 15 AUDIO TITLE "Новгодний этап" PERFORMER "Андрей Школин" INDEX 01 55:13:74

Лог проверки качества

AUDIOCHECKER v2.0 beta (build 457) - by Dester - opdester@freemail.hu~~~~~~~~~~~~~~~~~~~~~~~~~~~~~~~~~~-=== НЕ РЕДАКТИРУЙТЕ ЭТОТ ФАЙЛ! ===-
Путь: ...\2005 - VA - Шансон. Блатной
1 -=- Various Artists - Шансон. Блатной.flac -=- CDDA (100%)
50367732
[Профиль] [ЛС]
Показать сообщения:    
Ответить на тему

Текущее время: 26-Фев 22:41

Часовой пояс: UTC + 3



Вы не можете начинать темы
Вы не можете отвечать на сообщения
Вы не можете редактировать свои сообщения
Вы не можете удалять свои сообщения
Вы не можете голосовать в опросах
Вы не можете прикреплять файлы к сообщениям
Вы можете скачивать файлы