Золушка / Aschenputtel (Уве Янсон / Uwe Janson) [2011 г., Германия, детский, семейный, фэнтези, DVB] MVO

Ответить на тему
 
Автор Сообщение

AsPirinS ®

Пол: Не указан

Стаж: 7 года 2 месяца

Сообщений: 228

Создавать темы 07-Янв-2014 12:17

[Цитировать]

Золушка / Aschenputtel
Год выпуска: 2011
Страна: Германия, Askania Media Filmproduktion
Жанр: детский, семейный, фэнтези
Продолжительность: 00:59:13
Перевод: профессиональный (многоголосый, закадровый)
Русские субтитры: нет
Режиссёр: Уве Янсон / Uwe Janson
В ролях: Айлин Тезель, Флориан Бартоломей, Барбара Ауэр, Фелине Рогган, Анна Брюггеманн, Харальд Красснитцер, Аксель Зифер, Патрик Йосвиг, Лукас Янсон, Гюнтер Флек
Описание: Родители Золушки давно умерли, и она живет в доме злой мачехи, выполняя работу прислуги. Поплакаться о своей тяжелой судьбе Золушка приходит на могилу матери, где ей помогают белая голубка и волшебное дерево ...
Доп. информация: по мотивам сказки братьев Гримм

Семпл: http://yadi.sk/d/ZTXvu8fAFa7Hu
Качество видео: DVB
Формат видео: MPEG-PS
Видео: MPEG2 Video, 720x576 (4:3), 25 fps, 3000 kbps
Аудио: MPEG Audiо, 2 сh, 48 kHz, 192 kbps

MediaInfo

D:\Золушка. (2011)_DVB by SLuMeP.mpg
General
Complete name : D:\Золушка. (2011)_DVB by SLuMeP.mpg
Format : MPEG-PS
File size : 1.33 GiB
Duration : 59mn 13s
Overall bit rate mode : Variable
Overall bit rate : 3 226 Kbps
Video #224
ID : 224 (0xE0)
Format : MPEG Video
Format version : Version 2
Format profile : Main@Main
Format settings, BVOP : Yes
Format settings, Matrix : Custom
Format settings, GOP : M=3, N=12
Duration : 59mn 13s
Bit rate mode : Variable
Bit rate : 2 969 Kbps
Maximum bit rate : 5 000 Kbps
Width : 720 pixels
Height : 576 pixels
Display aspect ratio : 4:3
Frame rate : 25.000 fps
Standard : PAL
Color space : YUV
Chroma subsampling : 4:2:0
Bit depth : 8 bits
Scan type : Interlaced
Scan order : Top Field First
Compression mode : Lossy
Bits/(Pixel*Frame) : 0.286
Time code of first frame : 00:00:00:00
Time code source : Group of pictures header
Stream size : 1.23 GiB (92%)
Audio #192
ID : 192 (0xC0)
Format : MPEG Audio
Format version : Version 1
Format profile : Layer 2
Duration : 59mn 13s
Bit rate mode : Constant
Bit rate : 192 Kbps
Channel(s) : 2 channels
Sampling rate : 48.0 KHz
Compression mode : Lossy
Stream size : 81.3 MiB (6%)

Скриншоты


[Профиль] [ЛС]
Показать сообщения:    
Ответить на тему

Текущее время: 02-Мар 20:07

Часовой пояс: UTC + 3



Вы не можете начинать темы
Вы не можете отвечать на сообщения
Вы не можете редактировать свои сообщения
Вы не можете удалять свои сообщения
Вы не можете голосовать в опросах
Вы не можете прикреплять файлы к сообщениям
Вы не можете скачивать файлы