Одноклассники / Grown Ups [Дэннис Дуган] [2010., комедия, BDRip 1080p] Dub+orig

Ответить на тему
 
Автор Сообщение

igrok101 ®

Пол: Не указан

Создавать темы 09-Янв-2014 18:55

[Цитировать]

Одноклассники\Grown Ups Год выхода: 2010
Жанр: комедия
Режиссер: Дэннис Дуган
В ролях:
Адам Сэндлер, Кевин Джеймс, Крис Рок, Дэвид Спейд, Роб Шнайдер, Сальма Хайек, Мария Белло, Майя Рудольф, Джойс Ван Пэттен, Эбони Джо-Энн...
О фильме:
5 друзей детства встречаются после 30 лет разлуки в летнем доме у озера на уик-энд в День независимости. Они приехали сюда с семьями, чтобы почтить память школьного тренера по баскетболу и отпраздновать тридцатую годовщину чемпионата, в котором они вместе выиграли.

Выпущено: США
Продолжительность: 01:42:20
Перевод: Дублированный + Оригинал
Файл
Кодек: x264
Качество: BDRip 1080p
Видео: 1920x1040, 9578 Kbps, 23.976 fps
Аудио #1: AC-3, 6 ch, 640 kbps (Rus)
Аудио #2: AC-3, 6 ch, 640 kbps (Eng)
Субтитры: русские (полные, форсированные), английские

Скриншоты

MI

Общее
Уникальный идентификатор : 219889123577663651927458169039636130325 (0xA56D1AD12E0038499BC885B24993EA15)
Полное имя : ОдноклассникиОдноклассники.2010.BDRip.1080p.Rus.Eng.mkv
Формат : Matroska
Версия формата : Version 2
Размер файла : 7,76 Гбайт
Продолжительность : 1 ч. 42 м.
Общий поток : 10,9 Мбит/сек
Название фильма : Одноклассники.2010
Дата кодирования : UTC 2014-01-09 14:54:17
Программа кодирования : mkvmerge v5.8.0 ('No Sleep / Pillow') built on Sep 2 2012 15:37:04
Библиотека кодирования : libebml v1.2.3 + libmatroska v1.3.0
Видео
Идентификатор : 1
Формат : AVC
Формат/Информация : Advanced Video Codec
Профиль формата : High@L4.1
Параметр CABAC формата : Да
Параметр ReFrames формата : 4 кадра
Идентификатор кодека : V_MPEG4/ISO/AVC
Продолжительность : 1 ч. 42 м.
Битрейт : 9578 Кбит/сек
Ширина : 1920 пикселей
Высота : 1040 пикселей
Соотношение сторон : 1,85:1
Режим частоты кадров : Постоянный
Частота кадров : 23,976 кадра/сек
Цветовое пространство : YUV
Субдискретизация насыщенности : 4:2:0
Битовая глубина : 8 бит
Тип развёртки : Прогрессивная
Бит/(Пиксели*Кадры) : 0.200
Размер потока : 6,69 Гбайт (86%)
Заголовок : Rip by Boriy
Библиотека кодирования : x264 core 140 r2377 1ca7bb9
Настройки программы : cabac=1 / ref=4 / deblock=1:-3:-3 / analyse=0x3:0x113 / me=umh / subme=11 / psy=1 / psy_rd=1.00:0.00 / mixed_ref=1 / me_range=32 / chroma_me=1 / trellis=2 / 8x8dct=1 / cqm=0 / deadzone=21,11 / fast_pskip=0 / chroma_qp_offset=-2 / threads=12 / lookahead_threads=1 / sliced_threads=0 / nr=0 / decimate=0 / interlaced=0 / bluray_compat=0 / constrained_intra=0 / bframes=6 / b_pyramid=2 / b_adapt=2 / b_bias=0 / direct=3 / weightb=1 / open_gop=0 / weightp=2 / keyint=240 / keyint_min=23 / scenecut=40 / intra_refresh=0 / rc=2pass / mbtree=0 / bitrate=9578 / ratetol=1.0 / qcomp=0.60 / qpmin=0 / qpmax=69 / qpstep=4 / cplxblur=20.0 / qblur=0.5 / ip_ratio=1.40 / pb_ratio=1.30 / aq=1:0.80
Язык : English
Default : Да
Forced : Нет
Аудио #1
Идентификатор : 2
Формат : AC-3
Формат/Информация : Audio Coding 3
Расширение режима : CM (complete main)
Параметр Endianness формата : Big
Идентификатор кодека : A_AC3
Продолжительность : 1 ч. 42 м.
Вид битрейта : Постоянный
Битрейт : 640 Кбит/сек
Каналы : 6 каналов
Расположение каналов : Front: L C R, Side: L R, LFE
Частота : 48,0 КГц
Битовая глубина : 16 бит
Метод сжатия : С потерями
Размер потока : 468 Мбайт (6%)
Заголовок : Дубляж
Язык : Russian
Default : Да
Forced : Нет
Аудио #2
Идентификатор : 3
Формат : AC-3
Формат/Информация : Audio Coding 3
Расширение режима : CM (complete main)
Параметр Endianness формата : Big
Идентификатор кодека : A_AC3
Продолжительность : 1 ч. 42 м.
Вид битрейта : Постоянный
Битрейт : 640 Кбит/сек
Каналы : 6 каналов
Расположение каналов : Front: L C R, Side: L R, LFE
Частота : 48,0 КГц
Битовая глубина : 16 бит
Метод сжатия : С потерями
Размер потока : 468 Мбайт (6%)
Заголовок : Оригинал
Язык : English
Default : Нет
Forced : Нет
Текст #1
Идентификатор : 4
Формат : UTF-8
Идентификатор кодека : S_TEXT/UTF8
Идентификатор кодека/Информация : UTF-8 Plain Text
Заголовок : Forced
Язык : Russian
Default : Да
Forced : Да
Текст #2
Идентификатор : 5
Формат : UTF-8
Идентификатор кодека : S_TEXT/UTF8
Идентификатор кодека/Информация : UTF-8 Plain Text
Заголовок : Full
Язык : Russian
Default : Нет
Forced : Нет
Текст #3
Идентификатор : 6
Формат : UTF-8
Идентификатор кодека : S_TEXT/UTF8
Идентификатор кодека/Информация : UTF-8 Plain Text
Заголовок : Full
Язык : English
Default : Нет
Forced : Нет
Меню
00:00:00.000 : :Chapter 1
00:06:12.830 : :Chapter 2
00:15:50.991 : :Chapter 3
00:20:51.416 : :Chapter 4
00:25:04.503 : :Chapter 5
00:28:42.721 : :Chapter 6
00:37:09.769 : :Chapter 7
00:42:57.199 : :Chapter 8
00:50:19.391 : :Chapter 9
00:54:30.308 : :Chapter 10
01:00:19.115 : :Chapter 11
01:06:52.341 : :Chapter 12
01:12:04.445 : :Chapter 13
01:17:28.977 : :Chapter 14
01:24:11.296 : :Chapter 15
01:31:01.247 : :Chapter 16

x264

x264 [info]: frame I:1847 Avg QP:14.79 size:264102
x264 [info]: frame P:37685 Avg QP:16.99 size: 95020
x264 [info]: frame B:107684 Avg QP:19.14 size: 30459
 
Показать сообщения:    
Ответить на тему

Текущее время: 28-Фев 07:37

Часовой пояс: UTC + 3



Вы не можете начинать темы
Вы не можете отвечать на сообщения
Вы не можете редактировать свои сообщения
Вы не можете удалять свои сообщения
Вы не можете голосовать в опросах
Вы не можете прикреплять файлы к сообщениям
Вы не можете скачивать файлы