Alicia Keys - VH1 Storytellers (2013., R&B, pop, soul, BDRip 720p)

Ответить на тему
 
Автор Сообщение

AsPirinS ®

Пол: Не указан

Стаж: 7 года 2 месяца

Сообщений: 228

Создавать темы 10-Янв-2014 14:15

[Цитировать]

Информация о фильме
Оригинальное название: Alicia Keys - VH1 Storytellers
Год выпуска: 2013
Жанр: R&B, pop, soul
Режиссер: Алекс Колетти
Исполнитель: Алиша Киз
Страна: Германия
Студия: Sony Music
Продолжительность: 00:53:49

Описание:
Алиша Киз. Что мы знаем о ней? Впервые появившись в далеком 2001-м, она мгновенно завоевала любовь миллионов слушателей и большинства музыкальных критиков своим уникальным голосом и трогательной лирикой. На протяжении нескольких лет она считалась главной претенденткой на звание «новой королевы соула». В списке её достижений: 35 млн проданных альбомов, больше сотни музыкальных премий (среди которых 14 «Грэмми»), а также звание одной из самых успешных R&B-исполнительниц всех времен.
Файл
Качество: BDRip 720p
Видео: MPEG-4 AVC, 6500 Кбит/с, 1280x720, 29.970 кадр/с
Аудио #1: Английский (AC3, 6 ch, 640 Кбит/с)
Аудио #2: Английский (DTS, 6 ch, 1509 Кбит/с)
Аудио #3: Английский (FLAC, 2 ch, 1540 Кбит/с) - отдельно

Семпл

Скриншоты


Треклист

01. No One
02. Brand New Me
03. You Don't Know My Name
04. Not Even The King
05. Fallin'
06. If I Ain't Got You
07. Girl On Fire
08. New Day

MI

Общее
Уникальный идентификатор : 203916255477467227404895563445173851247 (0x9968D79E29EB06A895EBBCF4AC19946F)
Полное имя : D:Mои раздачиAlicia.Keys-VH1.Storytellers.2013.BDRip.(720p)-MediaClubAlicia.Keys-VH1.Storytellers.2013.BDRip.(720p)-MediaClub.mkv
Формат : Matroska
Версия формата : Version 4 / Version 2
Размер файла : 3,25 Гбайт
Продолжительность : 53 м.
Общий поток : 8648 Кбит/сек
Название фильма : -=MediaClub-kaspr=-
Дата кодирования : UTC 2014-01-09 18:08:50
Программа кодирования : mkvmerge v6.1.0 ('Old Devil') built on Mar 4 2013 09:10:42
Библиотека кодирования : libebml v1.3.0 + libmatroska v1.4.0
Видео
Идентификатор : 1
Формат : AVC
Формат/Информация : Advanced Video Codec
Профиль формата : High@L4.1
Параметр CABAC формата : Да
Параметр ReFrames формата : 8 кадров
Идентификатор кодека : V_MPEG4/ISO/AVC
Продолжительность : 53 м.
Битрейт : 6500 Кбит/сек
Ширина : 1280 пикселей
Высота : 720 пикселей
Соотношение сторон : 16:9
Режим частоты кадров : Постоянный
Частота кадров : 29,970 кадров/сек
Цветовое пространство : YUV
Субдискретизация насыщенности : 4:2:0
Битовая глубина : 8 бит
Тип развёртки : Прогрессивная
Бит/(Пиксели*Кадры) : 0.235
Размер потока : 2,38 Гбайт (73%)
Заголовок : -=MediaClub-kaspr=-
Библиотека кодирования : x264 core 130 r2273 b3065e6
Настройки программы : cabac=1 / ref=8 / deblock=1:-3:-3 / analyse=0x3:0x133 / me=umh / subme=11 / psy=1 / psy_rd=1.00:0.20 / mixed_ref=1 / me_range=48 / chroma_me=1 / trellis=2 / 8x8dct=1 / cqm=0 / deadzone=21,11 / fast_pskip=0 / chroma_qp_offset=-3 / threads=12 / lookahead_threads=3 / sliced_threads=0 / nr=0 / decimate=0 / interlaced=0 / bluray_compat=0 / constrained_intra=0 / bframes=10 / b_pyramid=2 / b_adapt=2 / b_bias=0 / direct=3 / weightb=1 / open_gop=0 / weightp=2 / keyint=300 / keyint_min=29 / scenecut=40 / intra_refresh=0 / rc=2pass / mbtree=0 / bitrate=6500 / ratetol=1.0 / qcomp=0.60 / qpmin=0 / qpmax=69 / qpstep=4 / cplxblur=20.0 / qblur=0.5 / ip_ratio=1.40 / pb_ratio=1.30 / aq=1:1.00
Default : Да
Forced : Да
Аудио #1
Идентификатор : 2
Формат : AC-3
Формат/Информация : Audio Coding 3
Расширение режима : CM (complete main)
Параметр Endianness формата : Big
Идентификатор кодека : A_AC3
Продолжительность : 53 м.
Вид битрейта : Постоянный
Битрейт : 640 Кбит/сек
Каналы : 6 каналов
Расположение каналов : Front: L C R, Side: L R, LFE
Частота : 48,0 КГц
Битовая глубина : 16 бит
Метод сжатия : С потерями
Размер потока : 246 Мбайт (7%)
Заголовок : AC3
Язык : English
Default : Да
Forced : Да
Аудио #2
Идентификатор : 3
Формат : DTS
Формат/Информация : Digital Theater Systems
Режим : 16
Параметр Endianness формата : Big
Идентификатор кодека : A_DTS
Продолжительность : 53 м.
Вид битрейта : Постоянный
Битрейт : 1509 Кбит/сек
Каналы : 6 каналов
Расположение каналов : Front: L C R, Side: L R, LFE
Частота : 48,0 КГц
Битовая глубина : 24 бит
Метод сжатия : С потерями
Размер потока : 581 Мбайт (17%)
Заголовок : DTS
Язык : English
Default : Нет
Forced : Нет
Меню
00:00:00.000 : en:Chapter 01
00:05:12.312 : en:Chapter 02
00:12:09.995 : en:Chapter 03
00:20:58.056 : en:Chapter 04
00:29:34.973 : en:Chapter 05
00:35:57.355 : en:Chapter 06
00:42:14.665 : en:Chapter 07
00:46:19.977 : en:Chapter 08
Общее
Полное имя : D:Mои раздачиAlicia.Keys-VH1.Storytellers.2013.BDRip.(720p)-MediaClubFLAC-Alicia.Keys-VH1.Storytellers.2013..flac
Формат : FLAC
Формат/Информация : Free Lossless Audio Codec
Размер файла : 593 Мбайт
Продолжительность : 53 м.
Режим общего битрейта : Переменный
Общий поток : 1540 Кбит/сек
Аудио
Формат : FLAC
Формат/Информация : Free Lossless Audio Codec
Продолжительность : 53 м.
Вид битрейта : Переменный
Битрейт : 1540 Кбит/сек
Каналы : 2 канала
Частота : 48,0 КГц
Битовая глубина : 24 бит
Размер потока : 593 Мбайт (100%)
Библиотека кодирования : libFLAC 1.2.1 (UTC 2007-09-17)
[Профиль] [ЛС]
Показать сообщения:    
Ответить на тему

Текущее время: 27-Фев 23:51

Часовой пояс: UTC + 3



Вы не можете начинать темы
Вы не можете отвечать на сообщения
Вы не можете редактировать свои сообщения
Вы не можете удалять свои сообщения
Вы не можете голосовать в опросах
Вы не можете прикреплять файлы к сообщениям
Вы не можете скачивать файлы