Туман 2 / Серии: 1-4 из 4 (Иван Шурховецкий) [2012, фантастика, драма, военный, DVD9] R5 Original Rus

Ответить на тему
 
Автор Сообщение

valdai ®

Пол: Мужской

Стаж: 8 года 8 месяца

Сообщений: 18

Создавать темы 09-Май-2013 19:26

[Цитировать]

Туман 2
--Год выпуска: 2012
Производство: Россия, "ВВП Альянс"
Жанр: фантастика, драма, военный
Продолжительность: 147 мин
Дата выхода DVD: 07 мая 2013, «Новый Диск»
Перевод: Оригинал [Лицензия]
Субтитры: Нет
Режиссёр: Иван Шурховецкий-В ролях: Григорий Калинин, Дмитрий Сергин, Артем Крестников, Иван Лапин, Алексей Марков, Ирина Горбачева, Нодари Джанелидзе, Алексей Митин, Юрий Уткин, Сергей Гарусов-Описание: Во время празднования дня Победы герои понимают, что тематическая военная вечеринка сменилась реальностью фашистского тыла. Пятеро парней, известных зрителям по первой части фильма, оказываются в немецкой пивной. В суматохе боя им удается бежать, однако в неразберихе «пришельцы из 21 века» случайно ранят красноармейца по фамилии Кантария. Друзья понимают, что если тот не выживет, то изменится ход истории — кто же будет водружать флаг на Рейхстаг? Теперь их задача — добраться до своих, не дать погибнуть будущему герою войны и, конечно, вернуться обратно в свое время.- -Качество: DVD9 R5
Формат: DVD-Video
Видео кодек: MPEG2
Аудио кодек: AC3
Видео: PAL 16:9 (720x576(0.521)) MPEG Video, 25,000 кадр/сек, 7004 Кбит/сек
Аудио: Russian (Dolby AC3, 2 ch) 224 Кбит/сек, 48,0 КГц

DVDInfo


Title: Tuman.2.2012.DVD9
Size: 7.65 Gb ( 8 017 184,00 KBytes ) - DVD-9
Enabled regions: 1, 2, 3, 4, 5, 6, 7, 8
VTS_01 :
Play Length: 00:00:15
Video: PAL 4:3 (720x576) VBR
Audio:
Not specified (Dolby AC3, 2 ch)
VTS_02 :
Play Length: 00:00:08
Video: PAL 16:9 (720x576) VBR, Auto Letterboxed
Audio:
Not specified (Dolby AC3, 2 ch)
VTS_03 :
Play Length: 00:00:01
Video: PAL 16:9 (720x576) VBR, Auto Letterboxed
Audio:
Russian (Dolby AC3, 2 ch)
VTS_04 :
Play Length: 02:27:43
Video: PAL 16:9 (720x576) VBR, Auto Letterboxed
Audio:
Russian (Dolby AC3, 2 ch)
VTS_05 :
Play Length: 00:00:01
Video: PAL 16:9 (720x576) VBR, Auto Letterboxed
Audio:
Russian (Dolby AC3, 2 ch)

MediaInfo


Общее
Полное имя : E:\Разное\Tuman.2.2012.DVD9\VIDEO_TS\VTS_04_1.VOB
Формат : MPEG-PS
Размер файла : 1024 Мбайт
Продолжительность : 19 м.
Режим общего битрейта : Переменный
Общий поток : 7374 Кбит/сек
Библиотека кодирования : encoded by TMPGEnc 4.0 XPress Version. 4.7.4.299
Видео
Идентификатор : 224 (0xE0)
Формат : MPEG Video
Версия формата : Version 2
Профиль формата : Main@Main
Параметр BVOP формата : Да
Параметр матрицы формата : Выборочная
Параметр GOP формата : M=3, N=13
Продолжительность : 19 м.
Вид битрейта : Переменный
Битрейт : 7004 Кбит/сек
Максимальный битрейт : 8500 Кбит/сек
Ширина : 720 пикселей
Высота : 576 пикселей
Соотношение сторон : 16:9
Частота кадров : 25,000 кадров/сек
Стандарт вещания : PAL
Цветовое пространство : YUV
Субдискретизация насыщенности : 4:2:0
Битовая глубина : 8 бит
Тип развёртки : Прогрессивная
Метод сжатия : С потерями
Бит/(Пиксели*Кадры) : 0.675
TimeCode_FirstFrame : 00:00:00:00
TimeCode_Source : Group of pictures header
Размер потока : 973 Мбайт (95%)
Библиотека кодирования : TMPGEnc XPress 4.7.4.299
Основные цвета : BT.601 PAL
Характеристики трансфера : BT.470 System B, BT.470 System G
Коэффициенты матрицы : BT.601
Аудио
Идентификатор : 189 (0xBD)-128 (0x80)
Формат : AC-3
Формат/Информация : Audio Coding 3
Расширение режима : CM (complete main)
Параметр Endianness формата : Big
Режим смешивания : DVD-Video
Продолжительность : 19 м.
Вид битрейта : Постоянный
Битрейт : 224 Кбит/сек
Каналы : 2 канала
Расположение каналов : Front: L R
Частота : 48,0 КГц
Битовая глубина : 16 бит
Метод сжатия : С потерями
Размер потока : 31,1 Мбайт (3%)
Меню

Скриншоты меню


- -
[Профиль] [ЛС]
Показать сообщения:    
Ответить на тему

Текущее время: 02-Дек 16:16

Часовой пояс: UTC + 3



Вы не можете начинать темы
Вы не можете отвечать на сообщения
Вы не можете редактировать свои сообщения
Вы не можете удалять свои сообщения
Вы не можете голосовать в опросах
Вы не можете прикреплять файлы к сообщениям
Вы не можете скачивать файлы