Секреты цветокоррекции слайдов и негативов. Мастер-класс [Алексей Шадрин] (2015) PCRec

Ответить на тему
Статистика раздачи
Нет
   
 
Автор Сообщение

KianA ®

Стаж: 6 года 7 месяца

Сообщений: 310

Создавать темы 03-Сен-2015 04:51

[Цитировать]

Секреты цветокоррекции слайдов и негативов--
  • Год выпуска: 2015
  • Страна: Россия
  • Тематика: Графика, работа с программами
  • Тип материала: Обучающее видео
  • Продолжительность: 04:21:27
  • Авторы: Алексей Шадрин
  • Язык: Русский
    Описание:
    Мастер-класс Алексея Шадрина «Секреты цветокоррекции слайдов и негативов» рассчитан на фотолюбителей, которым приходится работать с пленочными изображениями.
    Вы узнаете причины актуальных сегодня проблем, поймете механизм их возникновения, научитесь сходу определять направление обработки пленочных изображений и в итоге сможете превратить семейный архив негативов и слайдов в выставку красочных фотографий, качество, сочность и эффектность которых наверняка превзойдет таковые у аналоговых отпечатков десятилетней давности. Если же сердце ваше и сегодня принадлежит фотопленке, полезными будут тонкости оцифровки и коррекции слайдов, которые позволят добиться той выразительности и того знаменитого «пленочного рисунка», ради которого вы взвалили на себя эту нелегкую технологическую ношу. Вы познакомитесь также с феноменом так называемой «гибридной фотографии», когда берут лучшее из технологических решений прошлого и настоящего, объединяя методы и приемы, и добиваются за счет этого наивысших визуальных результатов.

    Программа мастер-класса:

    *Фотопленка как носитель визуальной информации. Мотивы к применению пленочных носителей в современной фотографии.
    *Слайды и негативы. Что предпочтительнее?
    *Оцифровка слайдов и негативов. Особенности и тонкости. Оцифровка архивных материалов.
    *«Родовые» недостатки цветных фотопленок и базовые принципы их компенсации.
    *Понятие фундаментальной и технической цветокоррекции.
    *Цветокоррекция слайдов. Методика.
    *Цветокоррекция негативов. Методика.
    *Выводы.
    -
    -
  • Качество: PCRec
  • Формат: MP4
  • Видео кодек: AVC
  • Аудио кодек: AAC
  • Видео: avc1, 1920x1080, ~1400 Kbps, 30 fps
  • Аудио: AAC, 44,1 Hz, 2ch, 96 kbps

    MediaInfo

    General
    Complete name : D:\Мастер-Класс\Секреты цветокоррекции слайдов и негативов.mp4
    Format : MPEG-4
    Format profile : Base Media / Version 2
    Codec ID : mp42
    File size : 2.74 GiB
    Duration : 4h 21mn
    Overall bit rate mode : Variable
    Overall bit rate : 1 502 Kbps
    Encoded date : UTC 2015-08-17 23:43:25
    Tagged date : UTC 2015-08-18 03:49:11
    Video
    ID : 1
    Format : AVC
    Format/Info : Advanced Video Codec
    Format profile : Main@L5
    Format settings, CABAC : Yes
    Format settings, ReFrames : 5 frames
    Codec ID : avc1
    Codec ID/Info : Advanced Video Coding
    Duration : 4h 21mn
    Bit rate : 1 402 Kbps
    Width : 1 920 pixels
    Height : 1 080 pixels
    Display aspect ratio : 16:9
    Frame rate mode : Constant
    Frame rate : 30.000 fps
    Color space : YUV
    Chroma subsampling : 4:2:0
    Bit depth : 8 bits
    Scan type : Progressive
    Bits/(Pixel*Frame) : 0.023
    Stream size : 2.56 GiB (93%)
    Encoded date : UTC 2015-08-17 23:43:25
    Tagged date : UTC 2015-08-18 03:49:11
    Color primaries : BT.709
    Transfer characteristics : BT.709
    Matrix coefficients : BT.709
    Audio
    ID : 2
    Format : AAC
    Format/Info : Advanced Audio Codec
    Format profile : LC
    Codec ID : 40
    Duration : 4h 21mn
    Bit rate mode : Variable
    Bit rate : 96.0 Kbps
    Maximum bit rate : 232 Kbps
    Channel(s) : 2 channels
    Channel positions : Front: L R
    Sampling rate : 44.1 KHz
    Compression mode : Lossy
    Stream size : 179 MiB (6%)
    Encoded date : UTC 2015-08-17 23:43:25
    Tagged date : UTC 2015-08-17 23:50:53
[Профиль] [ЛС]
Показать сообщения:    
Ответить на тему

Текущее время: 29-Ноя 23:02

Часовой пояс: UTC + 3



Вы не можете начинать темы
Вы не можете отвечать на сообщения
Вы не можете редактировать свои сообщения
Вы не можете удалять свои сообщения
Вы не можете голосовать в опросах
Вы не можете прикреплять файлы к сообщениям
Вы не можете скачивать файлы