Ягненок / Lamb (Росс Патридж) (2015 Драма) WEB-DLRip [H.264] [MP4|1280x544]

Ответить на тему
Статистика раздачи
Нет
   
 
Автор Сообщение

messer20080 ®

Стаж: 7 года 6 месяца

Сообщений: 1950

Создавать темы 27-Янв-2016 09:28

[Цитировать]

Ягненок / Lamb (2015) WEB-DLRip- Производство: США
Жанр: Драма
Режиссер: Росс Патридж
Актеры: Росс Патридж, Уна Лоуренс, Джесс Вейкслер, Том Бауэр, Скут МакНэри, Линдсей Палсифер, Дженнифер ЛаФлер, Джоэль Мюррей, Рон Буркхардт, Марк Келли
Описание:
Когда мужчина встречает молодую девушку на стоянке, он пытается помочь ей избежать мрачной судьбы, приобщая её к красоте внешнего мира.
Дата мировой премьеры: 14 марта 2015,
Продолжительность: 01:37:26
Качество видео: WEB-DLRip
Перевод: Многоголосый закадровый
Внимание! Присутствуют голосовые вставки рекламы.
Видео: AVC/H.264, 1280x544, ~1024 Кбит/сек
Аудио: AAC, 2 канала, 128 Кбит/сек

Mediainfo

Общее
Полное имя : D:\Ягненок_Lamb (2015) WEB-DLRip.mp4
Формат : MPEG-4
Профиль формата : Base Media
Идентификатор кодека : isom (isom/iso2/avc1/mp41)
Размер файла : 802 Мбайт
Продолжительность : 1 ч. 37 м.
Общий поток : 1151 Кбит/сек
Программа кодирования : Lavf56.25.101
Видео
Идентификатор : 1
Формат : AVC
Формат/Информация : Advanced Video Codec
Профиль формата : High@L3.1
Параметр CABAC формата : Да
Параметр ReFrames формата : 4 кадра
Идентификатор кодека : avc1
Идентификатор кодека/Информация : Advanced Video Coding
Продолжительность : 1 ч. 37 м.
Битрейт : 1024 Кбит/сек
Ширина : 1280 пикселей
Высота : 544 пикселя
Соотношение сторон : 2,35:1
Режим частоты кадров : Постоянный
Частота кадров : 25,000 кадров/сек
Цветовое пространство : YUV
Субдискретизация насыщенности : 4:2:0
Битовая глубина : 8 бит
Тип развёртки : Прогрессивная
Бит/(Пиксели*Кадры) : 0.059
Размер потока : 709 Мбайт (88%)
Библиотека кодирования : x264 core 146
Настройки программы : cabac=1 / ref=2 / deblock=1:0:0 / analyse=0x3:0x113 / me=hex / subme=6 / psy=1 / psy_rd=1.00:0.00 / mixed_ref=1 / me_range=16 / chroma_me=1 / trellis=1 / 8x8dct=1 / cqm=0 / deadzone=21,11 / fast_pskip=1 / chroma_qp_offset=-2 / threads=48 / lookahead_threads=4 / sliced_threads=0 / nr=0 / decimate=1 / interlaced=0 / bluray_compat=0 / constrained_intra=0 / bframes=3 / b_pyramid=2 / b_adapt=1 / b_bias=0 / direct=1 / weightb=1 / open_gop=0 / weightp=1 / keyint=50 / keyint_min=5 / scenecut=40 / intra_refresh=0 / rc_lookahead=30 / rc=abr / mbtree=1 / bitrate=1024 / ratetol=1.0 / qcomp=0.60 / qpmin=0 / qpmax=69 / qpstep=4 / ip_ratio=1.40 / aq=1:1.00
Аудио
Идентификатор : 2
Формат : AAC
Формат/Информация : Advanced Audio Codec
Профиль формата : LC
Идентификатор кодека : 40
Продолжительность : 1 ч. 37 м.
Вид битрейта : Постоянный
Битрейт : 128 Кбит/сек
Каналы : 2 канала
Расположение каналов : Front: L R
Частота : 48,0 КГц
Частота кадров : 46,875 кадров/сек (1024 spf)
Метод сжатия : С потерями
Размер потока : 89,2 Мбайт (11%)
Default : Да
Alternate group : 1
Скриншоты:
[Профиль] [ЛС]
Показать сообщения:    
Ответить на тему

Текущее время: 29-Сен 15:43

Часовой пояс: UTC + 3



Вы не можете начинать темы
Вы не можете отвечать на сообщения
Вы не можете редактировать свои сообщения
Вы не можете удалять свои сообщения
Вы не можете голосовать в опросах
Вы не можете прикреплять файлы к сообщениям
Вы не можете скачивать файлы